  0
SECTION
  2
HEADER
  9
$ACADVER
  1
AC1018
  9
$ACADMAINTVER
 70
     0
  9
$DWGCODEPAGE
  3
ANSI_1252
  9
$INSBASE
 10
0.0
 20
0.0
 30
0.0
  9
$EXTMIN
 10
-88.4999997311869
 20
324.3810674109189
 30
0.0
  9
$EXTMAX
 10
208.5000002688112
 20
534.3810674109191
 30
0.0
  9
$LIMMIN
 10
0.0
 20
0.0
  9
$LIMMAX
 10
12.0
 20
9.0
  9
$ORTHOMODE
 70
     0
  9
$REGENMODE
 70
     1
  9
$FILLMODE
 70
     1
  9
$QTEXTMODE
 70
     0
  9
$MIRRTEXT
 70
     1
  9
$LTSCALE
 40
1.0
  9
$ATTMODE
 70
     1
  9
$TEXTSIZE
 40
0.2
  9
$TRACEWID
 40
0.05
  9
$TEXTSTYLE
  7
Standard
  9
$CLAYER
  8
0
  9
$CELTYPE
  6
ByLayer
  9
$CECOLOR
 62
   256
  9
$CELTSCALE
 40
1.0
  9
$DISPSILH
 70
     0
  9
$DIMSCALE
 40
1.0
  9
$DIMASZ
 40
0.18
  9
$DIMEXO
 40
0.0625
  9
$DIMDLI
 40
0.38
  9
$DIMRND
 40
0.0
  9
$DIMDLE
 40
0.0
  9
$DIMEXE
 40
0.18
  9
$DIMTP
 40
0.0
  9
$DIMTM
 40
0.0
  9
$DIMTXT
 40
0.18
  9
$DIMCEN
 40
0.09
  9
$DIMTSZ
 40
0.0
  9
$DIMTOL
 70
     0
  9
$DIMLIM
 70
     0
  9
$DIMTIH
 70
     1
  9
$DIMTOH
 70
     1
  9
$DIMSE1
 70
     0
  9
$DIMSE2
 70
     0
  9
$DIMTAD
 70
     0
  9
$DIMZIN
 70
     0
  9
$DIMBLK
  1

  9
$DIMASO
 70
     1
  9
$DIMSHO
 70
     1
  9
$DIMPOST
  1

  9
$DIMAPOST
  1

  9
$DIMALT
 70
     0
  9
$DIMALTD
 70
     2
  9
$DIMALTF
 40
25.4
  9
$DIMLFAC
 40
1.0
  9
$DIMTOFL
 70
     0
  9
$DIMTVP
 40
0.0
  9
$DIMTIX
 70
     0
  9
$DIMSOXD
 70
     0
  9
$DIMSAH
 70
     0
  9
$DIMBLK1
  1

  9
$DIMBLK2
  1

  9
$DIMSTYLE
  2
Standard
  9
$DIMCLRD
 70
     0
  9
$DIMCLRE
 70
     0
  9
$DIMCLRT
 70
     0
  9
$DIMTFAC
 40
1.0
  9
$DIMGAP
 40
0.09
  9
$DIMJUST
 70
     0
  9
$DIMSD1
 70
     0
  9
$DIMSD2
 70
     0
  9
$DIMTOLJ
 70
     1
  9
$DIMTZIN
 70
     0
  9
$DIMALTZ
 70
     0
  9
$DIMALTTZ
 70
     0
  9
$DIMUPT
 70
     0
  9
$DIMDEC
 70
     4
  9
$DIMTDEC
 70
     4
  9
$DIMALTU
 70
     2
  9
$DIMALTTD
 70
     2
  9
$DIMTXSTY
  7
Standard
  9
$DIMAUNIT
 70
     0
  9
$DIMADEC
 70
     0
  9
$DIMALTRND
 40
0.0
  9
$DIMAZIN
 70
     0
  9
$DIMDSEP
 70
    46
  9
$DIMATFIT
 70
     3
  9
$DIMFRAC
 70
     0
  9
$DIMLDRBLK
  1

  9
$DIMLUNIT
 70
     2
  9
$DIMLWD
 70
    -2
  9
$DIMLWE
 70
    -2
  9
$DIMTMOVE
 70
     0
  9
$LUNITS
 70
     2
  9
$LUPREC
 70
     4
  9
$SKETCHINC
 40
0.1
  9
$FILLETRAD
 40
0.5
  9
$AUNITS
 70
     0
  9
$AUPREC
 70
     0
  9
$MENU
  1
.
  9
$ELEVATION
 40
0.0
  9
$PELEVATION
 40
0.0
  9
$THICKNESS
 40
0.0
  9
$LIMCHECK
 70
     0
  9
$CHAMFERA
 40
0.5
  9
$CHAMFERB
 40
0.5
  9
$CHAMFERC
 40
1.0
  9
$CHAMFERD
 40
0.0
  9
$SKPOLY
 70
     0
  9
$TDCREATE
 40
2458137.840202604
  9
$TDUCREATE
 40
2458137.798535937
  9
$TDUPDATE
 40
2458137.840203148
  9
$TDUUPDATE
 40
2458137.798536481
  9
$TDINDWG
 40
0.0000000116
  9
$TDUSRTIMER
 40
0.0000000116
  9
$USRTIMER
 70
     1
  9
$ANGBASE
 50
0.0
  9
$ANGDIR
 70
     0
  9
$PDMODE
 70
     0
  9
$PDSIZE
 40
0.0
  9
$PLINEWID
 40
0.0
  9
$SPLFRAME
 70
     0
  9
$SPLINETYPE
 70
     6
  9
$SPLINESEGS
 70
     8
  9
$HANDSEED
  5
28A
  9
$SURFTAB1
 70
     6
  9
$SURFTAB2
 70
     6
  9
$SURFTYPE
 70
     6
  9
$SURFU
 70
     6
  9
$SURFV
 70
     6
  9
$UCSBASE
  2

  9
$UCSNAME
  2

  9
$UCSORG
 10
0.0
 20
0.0
 30
0.0
  9
$UCSXDIR
 10
1.0
 20
0.0
 30
0.0
  9
$UCSYDIR
 10
0.0
 20
1.0
 30
0.0
  9
$UCSORTHOREF
  2

  9
$UCSORTHOVIEW
 70
     0
  9
$UCSORGTOP
 10
0.0
 20
0.0
 30
0.0
  9
$UCSORGBOTTOM
 10
0.0
 20
0.0
 30
0.0
  9
$UCSORGLEFT
 10
0.0
 20
0.0
 30
0.0
  9
$UCSORGRIGHT
 10
0.0
 20
0.0
 30
0.0
  9
$UCSORGFRONT
 10
0.0
 20
0.0
 30
0.0
  9
$UCSORGBACK
 10
0.0
 20
0.0
 30
0.0
  9
$PUCSBASE
  2

  9
$PUCSNAME
  2

  9
$PUCSORG
 10
0.0
 20
0.0
 30
0.0
  9
$PUCSXDIR
 10
1.0
 20
0.0
 30
0.0
  9
$PUCSYDIR
 10
0.0
 20
1.0
 30
0.0
  9
$PUCSORTHOREF
  2

  9
$PUCSORTHOVIEW
 70
     0
  9
$PUCSORGTOP
 10
0.0
 20
0.0
 30
0.0
  9
$PUCSORGBOTTOM
 10
0.0
 20
0.0
 30
0.0
  9
$PUCSORGLEFT
 10
0.0
 20
0.0
 30
0.0
  9
$PUCSORGRIGHT
 10
0.0
 20
0.0
 30
0.0
  9
$PUCSORGFRONT
 10
0.0
 20
0.0
 30
0.0
  9
$PUCSORGBACK
 10
0.0
 20
0.0
 30
0.0
  9
$USERI1
 70
     0
  9
$USERI2
 70
     0
  9
$USERI3
 70
     0
  9
$USERI4
 70
     0
  9
$USERI5
 70
     0
  9
$USERR1
 40
18.1
  9
$USERR2
 40
0.0
  9
$USERR3
 40
0.0
  9
$USERR4
 40
0.0
  9
$USERR5
 40
0.0
  9
$WORLDVIEW
 70
     1
  9
$SHADEDGE
 70
     3
  9
$SHADEDIF
 70
    70
  9
$TILEMODE
 70
     1
  9
$MAXACTVP
 70
    64
  9
$PINSBASE
 10
0.0
 20
0.0
 30
0.0
  9
$PLIMCHECK
 70
     0
  9
$PEXTMIN
 10
1.00000000000000E+20
 20
1.00000000000000E+20
 30
1.00000000000000E+20
  9
$PEXTMAX
 10
-1.00000000000000E+20
 20
-1.00000000000000E+20
 30
-1.00000000000000E+20
  9
$PLIMMIN
 10
0.0
 20
0.0
  9
$PLIMMAX
 10
12.0
 20
9.0
  9
$UNITMODE
 70
     0
  9
$VISRETAIN
 70
     1
  9
$PLINEGEN
 70
     0
  9
$PSLTSCALE
 70
     1
  9
$TREEDEPTH
 70
  3020
  9
$CMLSTYLE
  2
Standard
  9
$CMLJUST
 70
     0
  9
$CMLSCALE
 40
1.0
  9
$PROXYGRAPHICS
 70
     1
  9
$MEASUREMENT
 70
     1
  9
$CELWEIGHT
370
    -1
  9
$ENDCAPS
280
     0
  9
$JOINSTYLE
280
     0
  9
$LWDISPLAY
290
     0
  9
$INSUNITS
 70
     4
  9
$HYPERLINKBASE
  1

  9
$STYLESHEET
  1

  9
$XEDIT
290
     1
  9
$CEPSNTYPE
380
     0
  9
$PSTYLEMODE
290
     1
  9
$FINGERPRINTGUID
  2
{560093DD-C5F8-4022-A511-EBD964A28EF3}
  9
$VERSIONGUID
  2
{FAEB1C32-E019-11D5-929B-00C0DF256EC4}
  9
$EXTNAMES
290
     1
  9
$PSVPSCALE
 40
0.0
  9
$OLESTARTUP
290
     0
  9
$SORTENTS
280
   127
  9
$INDEXCTL
280
     0
  9
$HIDETEXT
280
     1
  9
$XCLIPFRAME
290
     0
  9
$HALOGAP
280
     0
  9
$OBSCOLOR
 70
   257
  9
$OBSLTYPE
280
     0
  9
$INTERSECTIONDISPLAY
280
     0
  9
$INTERSECTIONCOLOR
 70
   257
  9
$DIMASSOC
280
     2
  9
$PROJECTNAME
  1

  0
ENDSEC
  0
SECTION
  2
CLASSES
  0
CLASS
  1
ACDBDICTIONARYWDFLT
  2
AcDbDictionaryWithDefault
  3
ObjectDBX Classes
 90
        0
 91
        4
280
     0
281
     0
  0
CLASS
  1
VISUALSTYLE
  2
AcDbVisualStyle
  3
ObjectDBX Classes
 90
     4095
 91
        4
280
     0
281
     0
  0
CLASS
  1
MATERIAL
  2
AcDbMaterial
  3
ObjectDBX Classes
 90
     1153
 91
        4
280
     0
281
     0
  0
ENDSEC
  0
SECTION
  2
TABLES
  0
TABLE
  2
VPORT
  5
8
330
0
100
AcDbSymbolTable
 70
     1
  0
VPORT
  5
29
330
8
100
AcDbSymbolTableRecord
100
AcDbViewportTableRecord
  2
*Active
 70
     0
 10
0.0
 20
0.0
 11
1.0
 21
1.0
 12
60.00000026881214
 22
429.3810674109189
 13
0.0
 23
0.0
 14
0.5
 24
0.5
 15
0.5
 25
0.5
 16
0.0
 26
0.0
 36
1.0
 17
0.0
 27
0.0
 37
0.0
 40
231.0000000000002
 41
1.60267857142857
 42
50.0
 43
0.0
 44
0.0
 50
0.0
 51
0.0
 71
     0
 72
   100
 73
     1
 74
     3
 75
     0
 76
     0
 77
     0
 78
     0
281
     0
 65
     1
110
0.0
120
0.0
130
0.0
111
1.0
121
0.0
131
0.0
112
0.0
122
1.0
132
0.0
 79
     0
146
0.0
  0
ENDTAB
  0
TABLE
  2
LTYPE
  5
5
330
0
100
AcDbSymbolTable
 70
     8
  0
LTYPE
  5
14
330
5
100
AcDbSymbolTableRecord
100
AcDbLinetypeTableRecord
  2
ByBlock
 70
     0
  3

 72
    65
 73
     0
 40
0.0
  0
LTYPE
  5
15
330
5
100
AcDbSymbolTableRecord
100
AcDbLinetypeTableRecord
  2
ByLayer
 70
     0
  3

 72
    65
 73
     0
 40
0.0
  0
LTYPE
  5
16
330
5
100
AcDbSymbolTableRecord
100
AcDbLinetypeTableRecord
  2
Continuous
 70
     0
  3
Solid line
 72
    65
 73
     0
 40
0.0
  0
LTYPE
  5
3F
330
5
100
AcDbSymbolTableRecord
100
AcDbLinetypeTableRecord
  2
DASHED
 70
     0
  3
Dashed
 72
    65
 73
     2
 40
15.0
 49
7.0
 74
     0
 49
-8.0
 74
     0
  0
LTYPE
  5
40
330
5
100
AcDbSymbolTableRecord
100
AcDbLinetypeTableRecord
  2
DOTTED
 70
     0
  3
Dotted
 72
    65
 73
     2
 40
1.0
 49
0.0
 74
     0
 49
-1.0
 74
     0
  0
LTYPE
  5
41
330
5
100
AcDbSymbolTableRecord
100
AcDbLinetypeTableRecord
  2
DOT_CENTER
 70
     0
  3
Dot_Center
 72
    65
 73
     4
 40
14.0
 49
12.0
 74
     0
 49
-1.0
 74
     0
 49
0.0
 74
     0
 49
-1.0
 74
     0
  0
LTYPE
  5
42
330
5
100
AcDbSymbolTableRecord
100
AcDbLinetypeTableRecord
  2
LONG_DASHED
 70
     0
  3
Long_Dashed
 72
    65
 73
     2
 40
15.0
 49
10.0
 74
     0
 49
-5.0
 74
     0
  0
LTYPE
  5
43
330
5
100
AcDbSymbolTableRecord
100
AcDbLinetypeTableRecord
  2
DASH_CENTER
 70
     0
  3
Dash_Center
 72
    65
 73
     4
 40
14.0
 49
11.0
 74
     0
 49
-1.0
 74
     0
 49
1.0
 74
     0
 49
-1.0
 74
     0
  0
LTYPE
  5
44
330
5
100
AcDbSymbolTableRecord
100
AcDbLinetypeTableRecord
  2
PHANTOM
 70
     0
  3
Phantom
 72
    65
 73
     6
 40
13.0
 49
10.0
 74
     0
 49
-1.0
 74
     0
 49
0.0
 74
     0
 49
-1.0
 74
     0
 49
0.0
 74
     0
 49
-1.0
 74
     0
  0
LTYPE
  5
45
330
5
100
AcDbSymbolTableRecord
100
AcDbLinetypeTableRecord
  2
CENTER_DASH_DASH
 70
     0
  3
Center_Dash_Dash
 72
    65
 73
     6
 40
14.0
 49
9.0
 74
     0
 49
-1.0
 74
     0
 49
1.0
 74
     0
 49
-1.0
 74
     0
 49
1.0
 74
     0
 49
-1.0
 74
     0
  0
ENDTAB
  0
TABLE
  2
LAYER
  5
2
330
0
100
AcDbSymbolTable
 70
     2
  0
LAYER
  5
10
330
2
100
AcDbSymbolTableRecord
100
AcDbLayerTableRecord
  2
0
 70
     0
 62
     7
  6
Continuous
370
    -3
390
F
  0
LAYER
  5
46
330
2
100
AcDbSymbolTableRecord
100
AcDbLayerTableRecord
  2
1
 70
     0
 62
     7
  6
Continuous
370
    -3
390
F
  0
ENDTAB
  0
TABLE
  2
STYLE
  5
3
330
0
100
AcDbSymbolTable
 70
     5
  0
STYLE
  5
11
330
3
100
AcDbSymbolTableRecord
100
AcDbTextStyleTableRecord
  2
Standard
 70
     0
 40
0.0
 41
1.0
 50
0.0
 71
     0
 42
0.2
  3
txt
  4

  0
STYLE
  5
CE
330
3
100
AcDbSymbolTableRecord
100
AcDbTextStyleTableRecord
  2
CONVERTER_11
 70
     0
 40
0.0
 41
0.9
 50
0.0
 71
     0
 42
0.2
  3
txt.shx
  4

  0
STYLE
  5
225
330
3
100
AcDbSymbolTableRecord
100
AcDbTextStyleTableRecord
  2
CONVERTER_12
 70
     0
 40
0.0
 41
0.81
 50
0.0
 71
     0
 42
0.2
  3
txt.shx
  4

  0
STYLE
  5
23B
330
3
100
AcDbSymbolTableRecord
100
AcDbTextStyleTableRecord
  2
CONVERTER_13
 70
     0
 40
0.0
 41
0.72
 50
0.0
 71
     0
 42
0.2
  3
txt.shx
  4

  0
STYLE
  5
23E
330
3
100
AcDbSymbolTableRecord
100
AcDbTextStyleTableRecord
  2
CONVERTER_14
 70
     0
 40
0.0
 41
0.855
 50
0.0
 71
     0
 42
0.2
  3
txt.shx
  4

  0
ENDTAB
  0
TABLE
  2
VIEW
  5
6
330
0
100
AcDbSymbolTable
 70
     0
  0
ENDTAB
  0
TABLE
  2
UCS
  5
7
330
0
100
AcDbSymbolTable
 70
     0
  0
ENDTAB
  0
TABLE
  2
APPID
  5
9
330
0
100
AcDbSymbolTable
 70
     1
  0
APPID
  5
12
330
9
100
AcDbSymbolTableRecord
100
AcDbRegAppTableRecord
  2
ACAD
 70
     0
  0
ENDTAB
  0
TABLE
  2
DIMSTYLE
  5
A
330
0
100
AcDbSymbolTable
 70
     4
100
AcDbDimStyleTable
  0
DIMSTYLE
105
27
330
A
100
AcDbSymbolTableRecord
100
AcDbDimStyleTableRecord
  2
Standard
 70
     0
178
     0
340
11
  0
DIMSTYLE
105
D2
102
{ACAD_REACTORS
330
D3
102
}
330
A
100
AcDbSymbolTableRecord
100
AcDbDimStyleTableRecord
  2
ME10_DIM_10
 70
     0
 41
3.5
 42
0.0
 44
1.5
 73
     0
 74
     0
 77
     1
 78
     8
140
3.5
147
1.5
172
     1
173
     1
174
     1
175
     1
176
     2
177
     2
178
     3
340
CE
  0
DIMSTYLE
105
11C
102
{ACAD_REACTORS
330
11D
102
}
330
A
100
AcDbSymbolTableRecord
100
AcDbDimStyleTableRecord
  2
ME10_DIM_11
 70
     0
 41
3.5
 42
0.0
 44
1.5
 73
     0
 74
     0
 77
     1
 78
     8
140
3.5
147
1.5
172
     1
173
     1
174
     1
175
     1
176
     2
177
     2
178
     3
340
CE
  0
DIMSTYLE
105
127
102
{ACAD_REACTORS
330
128
102
}
330
A
100
AcDbSymbolTableRecord
100
AcDbDimStyleTableRecord
  2
ME10_DIM_12
 70
     0
 41
3.5
 42
0.0
 44
1.5
 73
     0
 74
     0
 77
     1
 78
     8
140
3.5
147
1.5
172
     1
173
     1
174
     1
175
     1
176
     2
177
     2
178
     3
340
CE
  0
ENDTAB
  0
TABLE
  2
BLOCK_RECORD
  5
1
330
0
100
AcDbSymbolTable
 70
    20
  0
BLOCK_RECORD
  5
1F
330
1
100
AcDbSymbolTableRecord
100
AcDbBlockTableRecord
  2
*Model_Space
340
22
  0
BLOCK_RECORD
  5
1B
330
1
100
AcDbSymbolTableRecord
100
AcDbBlockTableRecord
  2
*Paper_Space
340
1E
  0
BLOCK_RECORD
  5
23
330
1
100
AcDbSymbolTableRecord
100
AcDbBlockTableRecord
  2
*Paper_Space0
340
26
  0
BLOCK_RECORD
  5
47
330
1
100
AcDbSymbolTableRecord
100
AcDbBlockTableRecord
  2
D-QTC_1_5-QUATTRO-select__1
340
0
102
{BLKREFS
331
4B
102
}
  0
BLOCK_RECORD
  5
4A
330
1
100
AcDbSymbolTableRecord
100
AcDbBlockTableRecord
  2
AllgSicht1
340
0
102
{BLKREFS
331
7D
102
}
  0
BLOCK_RECORD
  5
4E
330
1
100
AcDbSymbolTableRecord
100
AcDbBlockTableRecord
  2
D-QTC_1_5-QUATTRO-select__2
340
0
102
{BLKREFS
331
52
102
}
  0
BLOCK_RECORD
  5
51
330
1
100
AcDbSymbolTableRecord
100
AcDbBlockTableRecord
  2
Drfsicht1
340
0
102
{BLKREFS
331
7E
102
}
  0
BLOCK_RECORD
  5
55
330
1
100
AcDbSymbolTableRecord
100
AcDbBlockTableRecord
  2
D-QTC_1_5-QUATTRO-select__3
340
0
102
{BLKREFS
331
59
102
}
  0
BLOCK_RECORD
  5
58
330
1
100
AcDbSymbolTableRecord
100
AcDbBlockTableRecord
  2
Rckans1
340
0
102
{BLKREFS
331
7F
102
}
  0
BLOCK_RECORD
  5
5C
330
1
100
AcDbSymbolTableRecord
100
AcDbBlockTableRecord
  2
D-QTC_1_5-QUATTRO-select__4
340
0
102
{BLKREFS
331
60
102
}
  0
BLOCK_RECORD
  5
5F
330
1
100
AcDbSymbolTableRecord
100
AcDbBlockTableRecord
  2
SA_Links1
340
0
102
{BLKREFS
331
80
102
}
  0
BLOCK_RECORD
  5
63
330
1
100
AcDbSymbolTableRecord
100
AcDbBlockTableRecord
  2
D-QTC_1_5-QUATTRO-select__5
340
0
102
{BLKREFS
331
67
102
}
  0
BLOCK_RECORD
  5
66
330
1
100
AcDbSymbolTableRecord
100
AcDbBlockTableRecord
  2
SA_Rechts1
340
0
102
{BLKREFS
331
81
102
}
  0
BLOCK_RECORD
  5
6A
330
1
100
AcDbSymbolTableRecord
100
AcDbBlockTableRecord
  2
D-QTC_1_5-QUATTRO-select__6
340
0
102
{BLKREFS
331
6E
102
}
  0
BLOCK_RECORD
  5
6D
330
1
100
AcDbSymbolTableRecord
100
AcDbBlockTableRecord
  2
Vordans1
340
0
102
{BLKREFS
331
82
102
}
  0
BLOCK_RECORD
  5
71
330
1
100
AcDbSymbolTableRecord
100
AcDbBlockTableRecord
  2
_rahmen
340
0
102
{BLKREFS
331
78
102
}
  0
BLOCK_RECORD
  5
74
330
1
100
AcDbSymbolTableRecord
100
AcDbBlockTableRecord
  2
_punkt
340
0
102
{BLKREFS
331
79
102
}
  0
BLOCK_RECORD
  5
77
330
1
100
AcDbSymbolTableRecord
100
AcDbBlockTableRecord
  2
A4I_CS
340
0
102
{BLKREFS
331
83
102
}
  0
BLOCK_RECORD
  5
7C
330
1
100
AcDbSymbolTableRecord
100
AcDbBlockTableRecord
  2
1
340
0
102
{BLKREFS
331
86
102
}
  0
BLOCK_RECORD
  5
C6
330
1
100
AcDbSymbolTableRecord
100
AcDbBlockTableRecord
  2
*D17
340
0
  0
BLOCK_RECORD
  5
113
330
1
100
AcDbSymbolTableRecord
100
AcDbBlockTableRecord
  2
*D18
340
0
  0
BLOCK_RECORD
  5
11E
330
1
100
AcDbSymbolTableRecord
100
AcDbBlockTableRecord
  2
*D19
340
0
  0
ENDTAB
  0
ENDSEC
  0
SECTION
  2
BLOCKS
  0
BLOCK
  5
20
330
1F
100
AcDbEntity
  8
0
100
AcDbBlockBegin
  2
*Model_Space
 70
     0
 10
0.0
 20
0.0
 30
0.0
  3
*Model_Space
  1

  0
ENDBLK
  5
21
330
1F
100
AcDbEntity
  8
0
100
AcDbBlockEnd
  0
BLOCK
  5
1C
330
1B
100
AcDbEntity
 67
     1
  8
0
100
AcDbBlockBegin
  2
*Paper_Space
 70
     0
 10
0.0
 20
0.0
 30
0.0
  3
*Paper_Space
  1

  0
ENDBLK
  5
1D
330
1B
100
AcDbEntity
 67
     1
  8
0
100
AcDbBlockEnd
  0
BLOCK
  5
24
330
23
100
AcDbEntity
  8
0
100
AcDbBlockBegin
  2
*Paper_Space0
 70
     0
 10
0.0
 20
0.0
 30
0.0
  3
*Paper_Space0
  1

  0
ENDBLK
  5
25
330
23
100
AcDbEntity
  8
0
100
AcDbBlockEnd
  0
BLOCK
  5
48
330
47
100
AcDbEntity
  8
0
100
AcDbBlockBegin
  2
D-QTC_1_5-QUATTRO-select__1
 70
     0
 10
99.74680556846855
 20
387.3884759160617
 30
0.0
  3
D-QTC_1_5-QUATTRO-select__1
  1

  0
LINE
  5
87
330
47
100
AcDbEntity
  8
0
  6
Continuous
 62
     7
100
AcDbLine
 10
131.487864350137
 20
425.3861275394074
 30
0.0
 11
132.5878643501362
 21
426.3387554835697
 31
0.0
  0
LINE
  5
88
330
47
100
AcDbEntity
  8
0
  6
Continuous
 62
     7
100
AcDbLine
 10
132.9170255537098
 20
425.4649258313264
 30
0.0
 11
132.5878643501362
 21
426.3387554835697
 31
0.0
  0
LINE
  5
89
330
47
100
AcDbEntity
  8
0
  6
Continuous
 62
     7
100
AcDbLine
 10
149.2390612039885
 20
420.2191109941253
 30
0.0
 11
149.2390612039883
 21
419.4829894009043
 31
0.0
  0
LINE
  5
8A
330
47
100
AcDbEntity
  8
0
  6
Continuous
 62
     7
100
AcDbLine
 10
152.0969450364682
 20
420.823052910366
 30
0.0
 11
149.2390612039885
 21
420.2191109941253
 31
0.0
  0
LINE
  5
8B
330
47
100
AcDbEntity
  8
0
  6
Continuous
 62
     7
100
AcDbLine
 10
149.2390612039883
 20
419.4829894009043
 30
0.0
 11
131.8170255537106
 21
424.5122978871642
 31
0.0
  0
LINE
  5
8C
330
47
100
AcDbEntity
  8
0
  6
Continuous
 62
     7
100
AcDbLine
 10
131.8170255537106
 20
424.5122978871642
 30
0.0
 11
131.487864350137
 21
425.3861275394074
 31
0.0
  0
LINE
  5
8D
330
47
100
AcDbEntity
  8
0
  6
Continuous
 62
     7
100
AcDbLine
 10
152.0969450364682
 20
420.823052910366
 30
0.0
 11
153.1969450364674
 21
421.7756808545283
 31
0.0
  0
LINE
  5
8E
330
47
100
AcDbEntity
  8
0
  6
Continuous
 62
     7
100
AcDbLine
 10
132.9170255537098
 20
425.4649258313264
 30
0.0
 11
131.8170255537106
 21
424.5122978871642
 31
0.0
  0
LINE
  5
8F
330
47
100
AcDbEntity
  8
0
  6
Continuous
 62
     7
100
AcDbLine
 10
149.2390612039885
 20
420.2191109941253
 30
0.0
 11
150.3390612039877
 21
421.1717389382876
 31
0.0
  0
LINE
  5
90
330
47
100
AcDbEntity
  8
0
  6
Continuous
 62
     7
100
AcDbLine
 10
149.7015612039843
 20
420.619647743372
 30
0.0
 11
132.9170255537098
 21
425.4649258313264
 31
0.0
  0
LINE
  5
91
330
47
100
AcDbEntity
  8
0
  6
Continuous
 62
     7
100
AcDbLine
 10
153.1969450364674
 20
421.7756808545283
 30
0.0
 11
150.3390612039877
 21
421.1717389382876
 31
0.0
  0
LINE
  5
92
330
47
100
AcDbEntity
  8
0
  6
Continuous
 62
     7
100
AcDbLine
 10
182.2531935253836
 20
400.7871947861132
 30
0.0
 11
182.2531935253837
 21
406.1863916654374
 31
0.0
  0
LINE
  5
93
330
47
100
AcDbEntity
  8
0
  6
Continuous
 62
     7
100
AcDbLine
 10
182.2531935253836
 20
400.7871947861132
 30
0.0
 11
181.1531935253846
 21
399.834566841951
 31
0.0
  0
LINE
  5
94
330
47
100
AcDbEntity
  8
0
  6
Continuous
 62
     7
100
AcDbLine
 10
181.1531935253846
 20
399.834566841951
 30
0.0
 11
181.1531935253846
 21
405.2337637212751
 31
0.0
  0
LINE
  5
95
330
47
100
AcDbEntity
  8
0
  6
Continuous
 62
     7
100
AcDbLine
 10
182.2531935253849
 20
390.394889940697
 30
0.0
 11
181.1531935253855
 21
389.4422619965348
 31
0.0
  0
LINE
  5
96
330
47
100
AcDbEntity
  8
0
  6
Continuous
 62
     7
100
AcDbLine
 10
182.2531935253837
 20
406.1863916654374
 30
0.0
 11
181.1531935253846
 21
405.2337637212751
 31
0.0
  0
LINE
  5
97
330
47
100
AcDbEntity
  8
0
  6
Continuous
 62
     7
100
AcDbLine
 10
182.2531935253849
 20
390.394889940697
 30
0.0
 11
182.2531935253849
 21
388.6620120774935
 31
0.0
  0
LINE
  5
98
330
47
100
AcDbEntity
  8
0
  6
Continuous
 62
     7
100
AcDbLine
 10
181.1531935253846
 20
405.2337637212751
 30
0.0
 11
179.2235647188476
 21
412.9922723224528
 31
0.0
  0
LINE
  5
99
330
47
100
AcDbEntity
  8
0
  6
Continuous
 62
     7
100
AcDbLine
 10
179.2235647188476
 20
412.9922723224528
 30
0.0
 11
180.3235647188469
 21
413.9449002666151
 31
0.0
  0
LINE
  5
9A
330
47
100
AcDbEntity
  8
0
  6
Continuous
 62
     7
100
AcDbLine
 10
182.2531935253837
 20
406.1863916654374
 30
0.0
 11
180.3235647188469
 21
413.9449002666151
 31
0.0
  0
LINE
  5
9B
330
47
100
AcDbEntity
  8
0
  6
Continuous
 62
     7
100
AcDbLine
 10
129.8153553262208
 20
428.5253644111744
 30
0.0
 11
128.7153553262216
 21
427.5727364670121
 31
0.0
  0
LINE
  5
9C
330
47
100
AcDbEntity
  8
0
  6
Continuous
 62
     7
100
AcDbLine
 10
99.74680556846855
 20
428.7337637216155
 30
0.0
 11
99.74680556846863
 21
423.3345668422887
 31
0.0
  0
LINE
  5
9D
330
47
100
AcDbEntity
  8
0
  6
Continuous
 62
     7
100
AcDbLine
 10
131.487864350137
 20
425.3861275394074
 30
0.0
 11
128.7153553262216
 21
427.5727364670121
 31
0.0
  0
LINE
  5
9E
330
47
100
AcDbEntity
  8
0
  6
Continuous
 62
     7
100
AcDbLine
 10
132.5878643501362
 20
426.3387554835697
 30
0.0
 11
129.8153553262208
 21
428.5253644111744
 31
0.0
  0
LINE
  5
9F
330
47
100
AcDbEntity
  8
0
  6
Continuous
 62
     7
100
AcDbLine
 10
181.1531935253855
 20
389.4422619965348
 30
0.0
 11
181.1531935253856
 21
387.7093841333313
 31
0.0
  0
LINE
  5
A0
330
47
100
AcDbEntity
  8
0
  6
Continuous
 62
     7
100
AcDbLine
 10
102.7764343750046
 20
436.3308285560652
 30
0.0
 11
101.6764343750054
 21
435.378200611903
 31
0.0
  0
LINE
  5
A1
330
47
100
AcDbEntity
  8
0
  6
Continuous
 62
     7
100
AcDbLine
 10
101.6764343750054
 20
435.378200611903
 30
0.0
 11
99.74680556846855
 21
428.7337637216155
 31
0.0
  0
LINE
  5
A2
330
47
100
AcDbEntity
  8
0
  6
Continuous
 62
     7
100
AcDbLine
 10
128.7153553262216
 20
427.5727364670121
 30
0.0
 11
101.6764343750054
 21
435.378200611903
 31
0.0
  0
LINE
  5
A3
330
47
100
AcDbEntity
  8
0
  6
Continuous
 62
     7
100
AcDbLine
 10
129.8153553262208
 20
428.5253644111744
 30
0.0
 11
102.7764343750046
 21
436.3308285560652
 31
0.0
  0
LINE
  5
A4
330
47
100
AcDbEntity
  8
0
  6
Continuous
 62
     7
100
AcDbLine
 10
173.2677172039126
 20
387.3884759160617
 30
0.0
 11
181.1531935253856
 21
387.7093841333313
 31
0.0
  0
LINE
  5
A5
330
47
100
AcDbEntity
  8
0
  6
Continuous
 62
     7
100
AcDbLine
 10
182.2531935253849
 20
388.6620120774935
 30
0.0
 11
181.1531935253856
 21
387.7093841333313
 31
0.0
  0
LINE
  5
A6
330
47
100
AcDbEntity
  8
0
  6
Continuous
 62
     7
100
AcDbLine
 10
179.2235647188476
 20
412.9922723224528
 30
0.0
 11
152.0969450364682
 21
420.823052910366
 31
0.0
  0
LINE
  5
A7
330
47
100
AcDbEntity
  8
0
  6
Continuous
 62
     7
100
AcDbLine
 10
180.3235647188469
 20
413.9449002666151
 30
0.0
 11
153.1969450364674
 21
421.7756808545283
 31
0.0
  0
LINE
  5
A8
330
47
100
AcDbEntity
  8
0
  6
Continuous
 62
     7
100
AcDbLine
 10
99.74680556846855
 20
415.5403382082236
 30
0.0
 11
99.74680556846863
 21
408.6121349779569
 31
0.0
  0
LINE
  5
A9
330
47
100
AcDbEntity
  8
0
  6
Continuous
 62
     7
100
AcDbLine
 10
99.74680556846863
 20
408.6121349779569
 30
0.0
 11
173.2677172039126
 21
387.3884759160617
 31
0.0
  0
SPLINE
  5
AA
330
47
100
AcDbEntity
  8
0
  6
Continuous
 62
     7
100
AcDbSpline
210
0.0
220
0.0
230
1.0
 70
     8
 71
     3
 72
    13
 73
     9
 74
     7
 42
0.000000001
 43
0.0000000001
 44
0.00000001
 40
0.0
 40
0.0
 40
0.0
 40
0.0
 40
1.618800875635173
 40
3.296662960635506
 40
5.042045806820581
 40
6.857713221237759
 40
8.741157514550032
 40
10.68531582207253
 40
10.68531582207253
 40
10.68531582207253
 40
10.68531582207253
 10
182.2531935253836
 20
400.7871947861132
 30
0.0
 10
182.0362868383619
 20
400.2917740839566
 30
0.0
 10
181.5945597367167
 20
399.2828574765667
 30
0.0
 10
181.2489378309
 20
397.6271419543336
 30
0.0
 10
181.1264855856002
 20
395.880712663206
 30
0.0
 10
181.2573985128377
 20
394.0655476622638
 30
0.0
 10
181.6143897453249
 20
392.2119993066739
 30
0.0
 10
182.0380190366387
 20
391.0069645427153
 30
0.0
 10
182.2531935253849
 20
390.394889940697
 30
0.0
 11
182.2531935253836
 21
400.7871947861132
 31
0.0
 11
181.6544950747708
 21
399.2831746912483
 31
0.0
 11
181.2907168840621
 21
397.6452227347754
 31
0.0
 11
181.1686934400195
 21
395.9041105715158
 31
0.0
 11
181.2907168840626
 21
394.0925481399906
 31
0.0
 11
181.6544950747716
 21
392.2445687471867
 31
0.0
 11
182.2531935253849
 21
390.394889940697
 31
0.0
  0
SPLINE
  5
AB
330
47
100
AcDbEntity
  8
0
  6
Continuous
 62
     7
100
AcDbSpline
210
0.0
220
0.0
230
1.0
 70
     8
 71
     3
 72
    13
 73
     9
 74
     7
 42
0.000000001
 43
0.0000000001
 44
0.00000001
 40
0.0
 40
0.0
 40
0.0
 40
0.0
 40
1.618800875635205
 40
3.296662960635544
 40
5.042045806820676
 40
6.857713221237846
 40
8.741157514550059
 40
10.68531582207251
 40
10.68531582207251
 40
10.68531582207251
 40
10.68531582207251
 10
181.1531935253846
 20
399.834566841951
 30
0.0
 10
180.9362868383628
 20
399.3391461397943
 30
0.0
 10
180.4945597367175
 20
398.3302295324045
 30
0.0
 10
180.148937830901
 20
396.6745140101715
 30
0.0
 10
180.0264855856012
 20
394.9280847190438
 30
0.0
 10
180.1573985128383
 20
393.1129197181014
 30
0.0
 10
180.5143897453258
 20
391.259371362512
 30
0.0
 10
180.9380190366394
 20
390.0543365985529
 30
0.0
 10
181.1531935253855
 20
389.4422619965348
 30
0.0
 11
181.1531935253846
 21
399.834566841951
 31
0.0
 11
180.5544950747717
 21
398.3305467470861
 31
0.0
 11
180.190716884063
 21
396.6925947906132
 31
0.0
 11
180.0686934400204
 21
394.9514826273535
 31
0.0
 11
180.1907168840634
 21
393.1399201958284
 31
0.0
 11
180.5544950747723
 21
391.2919408030245
 31
0.0
 11
181.1531935253855
 21
389.4422619965348
 31
0.0
  0
SPLINE
  5
AC
330
47
100
AcDbEntity
  8
0
  6
Continuous
 62
     7
100
AcDbSpline
210
0.0
220
0.0
230
1.0
 70
     8
 71
     3
 72
    11
 73
     7
 74
     5
 42
0.000000001
 43
0.0000000001
 44
0.00000001
 40
0.0
 40
0.0
 40
0.0
 40
0.0
 40
1.851422095564441
 40
3.785240840663982
 40
5.805674702656546
 40
7.908935340366124
 40
7.908935340366124
 40
7.908935340366124
 40
7.908935340366124
 10
99.74680556846855
 20
415.5403382082236
 30
0.0
 10
99.9176472606029
 20
416.1350543026039
 30
0.0
 10
100.26693385756
 20
417.3509540484976
 30
0.0
 10
100.388267122669
 20
419.2945970904805
 30
0.0
 10
100.2503061173034
 20
421.3169453038685
 30
0.0
 10
99.9168714983738
 20
422.6530806482079
 30
0.0
 10
99.74680556846863
 20
423.3345668422887
 30
0.0
 11
99.74680556846855
 21
415.5403382082236
 31
0.0
 11
100.1946946058512
 21
417.3367677755231
 31
0.0
 11
100.3451528938423
 21
419.2647245305694
 31
0.0
 11
100.1946946058512
 21
421.2795484186894
 31
0.0
 11
99.74680556846863
 21
423.3345668422887
 31
0.0
  0
ENDBLK
  5
49
330
47
100
AcDbEntity
  8
0
100
AcDbBlockEnd
  0
BLOCK
  5
4C
330
4A
100
AcDbEntity
  8
0
100
AcDbBlockBegin
  2
AllgSicht1
 70
     0
 10
140.999999999998
 20
411.0
 30
0.0
  3
AllgSicht1
  1

  0
INSERT
  5
4B
330
4A
100
AcDbEntity
  8
0
100
AcDbBlockReference
  2
D-QTC_1_5-QUATTRO-select__1
 10
99.74680556846855
 20
387.3884759160617
 30
0.0
  0
ENDBLK
  5
4D
330
4A
100
AcDbEntity
  8
0
100
AcDbBlockEnd
  0
BLOCK
  5
4F
330
4E
100
AcDbEntity
  8
0
100
AcDbBlockBegin
  2
D-QTC_1_5-QUATTRO-select__2
 70
     0
 10
-35.00000053761424
 20
405.4000000238631
 30
0.0
  3
D-QTC_1_5-QUATTRO-select__2
  1

  0
LINE
  5
AD
330
4E
100
AcDbEntity
  8
0
  6
Continuous
 62
     7
100
AcDbLine
 10
58.99999946374808
 20
405.4000000238636
 30
0.0
 11
56.77185604196657
 21
405.4000000238635
 31
0.0
  0
LINE
  5
AE
330
4E
100
AcDbEntity
  8
0
  6
Continuous
 62
     7
100
AcDbLine
 10
-32.77185711583403
 20
407.600000023862
 30
0.0
 11
-32.77185711583403
 21
405.4000000238635
 31
0.0
  0
LINE
  5
AF
330
4E
100
AcDbEntity
  8
0
  6
Continuous
 62
     7
100
AcDbLine
 10
-32.77185711583403
 20
405.4000000238635
 30
0.0
 11
-35.00000053761424
 21
405.4000000238635
 31
0.0
  0
LINE
  5
B0
330
4E
100
AcDbEntity
  8
0
  6
Continuous
 62
     7
100
AcDbLine
 10
-1.55000053627066
 20
405.4000000238635
 30
0.0
 11
-32.77185711583403
 21
405.4000000238635
 31
0.0
  0
LINE
  5
B1
330
4E
100
AcDbEntity
  8
0
  6
Continuous
 62
     7
100
AcDbLine
 10
-35.00000053761424
 20
407.600000023862
 30
0.0
 11
-35.00000053761424
 21
405.4000000238635
 31
0.0
  0
LINE
  5
B2
330
4E
100
AcDbEntity
  8
0
  6
Continuous
 62
     7
100
AcDbLine
 10
58.99999946374808
 20
407.600000023862
 30
0.0
 11
58.99999946374808
 21
405.4000000238636
 31
0.0
  0
LINE
  5
B3
330
4E
100
AcDbEntity
  8
0
  6
Continuous
 62
     7
100
AcDbLine
 10
58.99999946374808
 20
407.600000023862
 30
0.0
 11
56.77185604196657
 21
407.600000023862
 31
0.0
  0
LINE
  5
B4
330
4E
100
AcDbEntity
  8
0
  6
Continuous
 62
     7
100
AcDbLine
 10
1.65141712630576
 20
405.4000000238635
 30
0.0
 11
-1.55000053627066
 21
405.4000000238635
 31
0.0
  0
LINE
  5
B5
330
4E
100
AcDbEntity
  8
0
  6
Continuous
 62
     7
100
AcDbLine
 10
-1.55000053627068
 20
407.600000023862
 30
0.0
 11
-1.55000053627066
 21
405.4000000238635
 31
0.0
  0
LINE
  5
B6
330
4E
100
AcDbEntity
  8
0
  6
Continuous
 62
     7
100
AcDbLine
 10
22.1487336903242
 20
405.4000000238631
 30
0.0
 11
22.14873369032417
 21
407.600000023862
 31
0.0
  0
LINE
  5
B7
330
4E
100
AcDbEntity
  8
0
  6
Continuous
 62
     7
100
AcDbLine
 10
1.65141712630576
 20
405.4000000238635
 30
0.0
 11
1.65141712630573
 21
407.600000023862
 31
0.0
  0
LINE
  5
B8
330
4E
100
AcDbEntity
  8
0
  6
Continuous
 62
     7
100
AcDbLine
 10
2.03149974528578
 20
405.4000000238635
 30
0.0
 11
1.65141712630576
 21
405.4000000238635
 31
0.0
  0
LINE
  5
B9
330
4E
100
AcDbEntity
  8
0
  6
Continuous
 62
     7
100
AcDbLine
 10
25.44873369031382
 20
407.600000023862
 30
0.0
 11
22.14873369032417
 21
407.600000023862
 31
0.0
  0
LINE
  5
BA
330
4E
100
AcDbEntity
  8
0
  6
Continuous
 62
     7
100
AcDbLine
 10
2.03149974528576
 20
407.600000023862
 30
0.0
 11
2.03149974528578
 21
405.4000000238635
 31
0.0
  0
LINE
  5
BB
330
4E
100
AcDbEntity
  8
0
  6
Continuous
 62
     7
100
AcDbLine
 10
25.44873369031386
 20
405.4000000238635
 30
0.0
 11
25.44873369031382
 21
407.600000023862
 31
0.0
  0
LINE
  5
BC
330
4E
100
AcDbEntity
  8
0
  6
Continuous
 62
     7
100
AcDbLine
 10
25.44873369031386
 20
405.4000000238635
 30
0.0
 11
22.1487336903242
 21
405.4000000238631
 31
0.0
  0
LINE
  5
BD
330
4E
100
AcDbEntity
  8
0
  6
Continuous
 62
     7
100
AcDbLine
 10
22.14873369032417
 20
407.600000023862
 30
0.0
 11
2.03149974528576
 21
407.600000023862
 31
0.0
  0
LINE
  5
BE
330
4E
100
AcDbEntity
  8
0
  6
Continuous
 62
     7
100
AcDbLine
 10
22.1487336903242
 20
405.4000000238631
 30
0.0
 11
2.03149974528578
 21
405.4000000238635
 31
0.0
  0
LINE
  5
BF
330
4E
100
AcDbEntity
  8
0
  6
Continuous
 62
     7
100
AcDbLine
 10
56.77185604196657
 20
405.4000000238635
 30
0.0
 11
56.77185604196657
 21
407.600000023862
 31
0.0
  0
LINE
  5
C0
330
4E
100
AcDbEntity
  8
0
  6
Continuous
 62
     7
100
AcDbLine
 10
56.77185604196657
 20
405.4000000238635
 30
0.0
 11
25.44873369031386
 21
405.4000000238635
 31
0.0
  0
LINE
  5
C1
330
4E
100
AcDbEntity
  8
0
  6
Continuous
 62
     7
100
AcDbLine
 10
1.65141712630573
 20
407.600000023862
 30
0.0
 11
-1.55000053627068
 21
407.600000023862
 31
0.0
  0
LINE
  5
C2
330
4E
100
AcDbEntity
  8
0
  6
Continuous
 62
     7
100
AcDbLine
 10
2.03149974528576
 20
407.600000023862
 30
0.0
 11
1.65141712630573
 21
407.600000023862
 31
0.0
  0
LINE
  5
C3
330
4E
100
AcDbEntity
  8
0
  6
Continuous
 62
     7
100
AcDbLine
 10
-32.77185711583403
 20
407.600000023862
 30
0.0
 11
-35.00000053761424
 21
407.600000023862
 31
0.0
  0
LINE
  5
C4
330
4E
100
AcDbEntity
  8
0
  6
Continuous
 62
     7
100
AcDbLine
 10
-1.55000053627068
 20
407.600000023862
 30
0.0
 11
-32.77185711583403
 21
407.600000023862
 31
0.0
  0
LINE
  5
C5
330
4E
100
AcDbEntity
  8
0
  6
Continuous
 62
     7
100
AcDbLine
 10
56.77185604196657
 20
407.600000023862
 30
0.0
 11
25.44873369031382
 21
407.600000023862
 31
0.0
  0
ENDBLK
  5
50
330
4E
100
AcDbEntity
  8
0
100
AcDbBlockEnd
  0
BLOCK
  5
53
330
51
100
AcDbEntity
  8
0
100
AcDbBlockBegin
  2
Drfsicht1
 70
     0
 10
12.0
 20
406.5000000000101
 30
0.0
  3
Drfsicht1
  1

  0
INSERT
  5
52
330
51
100
AcDbEntity
  8
0
100
AcDbBlockReference
  2
D-QTC_1_5-QUATTRO-select__2
 10
-35.00000053761424
 20
405.4000000238631
 30
0.0
  0
DIMENSION
  5
D3
330
51
100
AcDbEntity
  8
1
100
AcDbDimension
  2
*D17
 10
-42.77185711583403
 20
407.600000023862
 30
0.0
 11
-46.19685711583403
 21
415.717539461151
 31
0.0
 70
    32
  1
<>
 71
     5
 42
-1.0
 53
90.0
  3
ME10_DIM_10
100
AcDbAlignedDimension
 13
-32.77185711583403
 23
405.4000000238635
 33
0.0
 14
-32.77185711583403
 24
407.600000023862
 34
0.0
 50
90.0
100
AcDbRotatedDimension
  0
ENDBLK
  5
54
330
51
100
AcDbEntity
  8
0
100
AcDbBlockEnd
  0
BLOCK
  5
56
330
55
100
AcDbEntity
  8
0
100
AcDbBlockBegin
  2
D-QTC_1_5-QUATTRO-select__3
 70
     0
 10
94.00000053625192
 20
452.099999838019
 30
0.0
  3
D-QTC_1_5-QUATTRO-select__3
  1

  0
LINE
  5
D4
330
55
100
AcDbEntity
  8
0
  6
Continuous
 62
     7
100
AcDbLine
 10
130.8512663096759
 20
481.1499998380124
 30
0.0
 11
150.9685002547143
 21
481.1499998380124
 31
0.0
  0
LINE
  5
D5
330
55
100
AcDbEntity
  8
0
  6
Continuous
 62
     7
100
AcDbLine
 10
130.8512663096759
 20
481.9999998380171
 30
0.0
 11
130.8512663096759
 21
481.1499998380124
 31
0.0
  0
LINE
  5
D6
330
55
100
AcDbEntity
  8
0
  6
Continuous
 62
     7
100
AcDbLine
 10
150.9685002547143
 20
481.1499998380124
 30
0.0
 11
151.3485828736943
 21
482.0492910067184
 31
0.0
  0
LINE
  5
D7
330
55
100
AcDbEntity
  8
0
  6
Continuous
 62
     7
100
AcDbLine
 10
94.00000053625322
 20
475.3344553813889
 30
0.0
 11
96.22814395803344
 21
483.6499998380099
 31
0.0
  0
LINE
  5
D8
330
55
100
AcDbEntity
  8
0
  6
Continuous
 62
     7
100
AcDbLine
 10
94.00000053625193
 20
457.0999998380147
 30
0.0
 11
94.00000053625192
 21
455.0990448364281
 31
0.0
  0
LINE
  5
D9
330
55
100
AcDbEntity
  8
0
  6
Continuous
 62
     7
100
AcDbLine
 10
94.00000053625322
 20
469.0999998380177
 30
0.0
 11
94.00000053625322
 21
475.3344553813889
 31
0.0
  0
LINE
  5
DA
330
55
100
AcDbEntity
  8
0
  6
Continuous
 62
     7
100
AcDbLine
 10
96.22814395803344
 20
483.6499998380099
 30
0.0
 11
127.5512663096862
 21
483.6499998380099
 31
0.0
  0
LINE
  5
DB
330
55
100
AcDbEntity
  8
0
  6
Continuous
 62
     7
100
AcDbLine
 10
154.5500005362707
 20
483.6499998380099
 30
0.0
 11
185.7718571158341
 21
483.6499998380099
 31
0.0
  0
LINE
  5
DC
330
55
100
AcDbEntity
  8
0
  6
Continuous
 62
     7
100
AcDbLine
 10
188.0000005376143
 20
460.0999998380088
 30
0.0
 11
188.0000005376143
 21
452.099999838019
 31
0.0
  0
LINE
  5
DD
330
55
100
AcDbEntity
  8
0
  6
Continuous
 62
     7
100
AcDbLine
 10
188.0000005376143
 20
475.3344553813889
 30
0.0
 11
188.0000005376143
 21
469.0999998380149
 31
0.0
  0
LINE
  5
DE
330
55
100
AcDbEntity
  8
0
  6
Continuous
 62
     7
100
AcDbLine
 10
185.7718571158341
 20
483.6499998380099
 30
0.0
 11
188.0000005376143
 21
475.3344553813889
 31
0.0
  0
LINE
  5
DF
330
55
100
AcDbEntity
  8
0
  6
Continuous
 62
     7
100
AcDbLine
 10
188.0000005376143
 20
452.099999838019
 30
0.0
 11
103.1053642900336
 21
452.099999838019
 31
0.0
  0
LINE
  5
E0
330
55
100
AcDbEntity
  8
0
  6
Continuous
 62
     7
100
AcDbLine
 10
127.5512663096862
 20
483.6499998380099
 30
0.0
 11
130.8512663096759
 21
481.9999998380171
 31
0.0
  0
LINE
  5
E1
330
55
100
AcDbEntity
  8
0
  6
Continuous
 62
     7
100
AcDbLine
 10
151.3485828736943
 20
482.0492910067184
 30
0.0
 11
154.5500005362707
 21
483.6499998380099
 31
0.0
  0
LINE
  5
E2
330
55
100
AcDbEntity
  8
0
  6
Continuous
 62
     7
100
AcDbLine
 10
103.1053642900336
 20
452.099999838019
 30
0.0
 11
94.00000053625192
 21
455.0990448364281
 31
0.0
  0
ARC
  5
E3
330
55
100
AcDbEntity
  8
0
  6
Continuous
 62
     7
100
AcDbCircle
 10
80.25227345138572
 20
463.0999998380177
 30
0.0
 40
15.00000000000001
100
AcDbArc
 50
336.4218215217856
 51
23.57817847820186
  0
ARC
  5
E4
330
55
100
AcDbEntity
  8
0
  6
Continuous
 62
     7
100
AcDbCircle
 10
202.3090885588675
 20
464.5999998380119
 30
0.0
 40
14.99999999999995
100
AcDbArc
 50
162.5423968762658
 51
197.4576031237346
  0
ENDBLK
  5
57
330
55
100
AcDbEntity
  8
0
100
AcDbBlockEnd
  0
BLOCK
  5
5A
330
58
100
AcDbEntity
  8
0
100
AcDbBlockBegin
  2
Rckans1
 70
     0
 10
141.0
 20
467.8750003576279
 30
0.0
  3
Rckans1
  1

  0
INSERT
  5
59
330
58
100
AcDbEntity
  8
0
100
AcDbBlockReference
  2
D-QTC_1_5-QUATTRO-select__3
 10
94.00000053625192
 20
452.099999838019
 30
0.0
  0
ENDBLK
  5
5B
330
58
100
AcDbEntity
  8
0
100
AcDbBlockEnd
  0
BLOCK
  5
5D
330
5C
100
AcDbEntity
  8
0
100
AcDbBlockBegin
  2
D-QTC_1_5-QUATTRO-select__4
 70
     0
 10
70.89999997613677
 20
452.0999998380188
 30
0.0
  3
D-QTC_1_5-QUATTRO-select__4
  1

  0
LINE
  5
E5
330
5C
100
AcDbEntity
  8
0
  6
Continuous
 62
     7
100
AcDbLine
 10
70.89999997613677
 20
460.0999998380087
 30
0.0
 11
70.89999997613677
 21
452.0999998380188
 31
0.0
  0
LINE
  5
E6
330
5C
100
AcDbEntity
  8
0
  6
Continuous
 62
     7
100
AcDbLine
 10
70.89999997613677
 20
460.0999998380087
 30
0.0
 11
70.89999997613677
 21
469.0999998380147
 31
0.0
  0
LINE
  5
E7
330
5C
100
AcDbEntity
  8
0
  6
Continuous
 62
     7
100
AcDbLine
 10
70.89999997613677
 20
475.3344553813888
 30
0.0
 11
70.89999997613677
 21
469.0999998380147
 31
0.0
  0
LINE
  5
E8
330
5C
100
AcDbEntity
  8
0
  6
Continuous
 62
     7
100
AcDbLine
 10
70.89999997613677
 20
469.0999998380147
 30
0.0
 11
73.09999997613517
 21
469.0999998380147
 31
0.0
  0
LINE
  5
E9
330
5C
100
AcDbEntity
  8
0
  6
Continuous
 62
     7
100
AcDbLine
 10
70.89999997613677
 20
475.3344553813888
 30
0.0
 11
73.09999997613517
 21
475.3344553813888
 31
0.0
  0
LINE
  5
EA
330
5C
100
AcDbEntity
  8
0
  6
Continuous
 62
     7
100
AcDbLine
 10
73.09999997613517
 20
475.3344553813888
 30
0.0
 11
73.09999997613517
 21
469.0999998380147
 31
0.0
  0
LINE
  5
EB
330
5C
100
AcDbEntity
  8
0
  6
Continuous
 62
     7
100
AcDbLine
 10
73.09999997613517
 20
452.0999998380188
 30
0.0
 11
70.89999997613677
 21
452.0999998380188
 31
0.0
  0
LINE
  5
EC
330
5C
100
AcDbEntity
  8
0
  6
Continuous
 62
     7
100
AcDbLine
 10
73.09999997613528
 20
483.6499998380098
 30
0.0
 11
73.09999997613517
 21
475.3344553813888
 31
0.0
  0
LINE
  5
ED
330
5C
100
AcDbEntity
  8
0
  6
Continuous
 62
     7
100
AcDbLine
 10
70.89999997613677
 20
460.0999998380087
 30
0.0
 11
73.09999997613517
 21
460.0999998380087
 31
0.0
  0
LINE
  5
EE
330
5C
100
AcDbEntity
  8
0
  6
Continuous
 62
     7
100
AcDbLine
 10
70.89999997613677
 20
483.6499998380098
 30
0.0
 11
70.89999997613677
 21
475.3344553813888
 31
0.0
  0
LINE
  5
EF
330
5C
100
AcDbEntity
  8
0
  6
Continuous
 62
     7
100
AcDbLine
 10
70.89999997613677
 20
483.6499998380098
 30
0.0
 11
73.09999997613528
 21
483.6499998380098
 31
0.0
  0
LINE
  5
F0
330
5C
100
AcDbEntity
  8
0
  6
Continuous
 62
     7
100
AcDbLine
 10
73.09999997613517
 20
460.0999998380087
 30
0.0
 11
73.09999997613517
 21
452.0999998380188
 31
0.0
  0
LINE
  5
F1
330
5C
100
AcDbEntity
  8
0
  6
Continuous
 62
     7
100
AcDbLine
 10
73.09999997613517
 20
460.0999998380087
 30
0.0
 11
73.09999997613517
 21
469.0999998380147
 31
0.0
  0
ENDBLK
  5
5E
330
5C
100
AcDbEntity
  8
0
100
AcDbBlockEnd
  0
BLOCK
  5
61
330
5F
100
AcDbEntity
  8
0
100
AcDbBlockBegin
  2
SA_Links1
 70
     0
 10
71.99999999998857
 20
467.8750003576278
 30
0.0
  3
SA_Links1
  1

  0
INSERT
  5
60
330
5F
100
AcDbEntity
  8
0
100
AcDbBlockReference
  2
D-QTC_1_5-QUATTRO-select__4
 10
70.89999997613677
 20
452.0999998380188
 30
0.0
  0
ENDBLK
  5
62
330
5F
100
AcDbEntity
  8
0
100
AcDbBlockEnd
  0
BLOCK
  5
64
330
63
100
AcDbEntity
  8
0
100
AcDbBlockBegin
  2
D-QTC_1_5-QUATTRO-select__5
 70
     0
 10
-67.0999999761366
 20
452.099999838019
 30
0.0
  3
D-QTC_1_5-QUATTRO-select__5
  1

  0
LINE
  5
F2
330
63
100
AcDbEntity
  8
0
  6
Continuous
 62
     7
100
AcDbLine
 10
-67.0999999761366
 20
475.3344553813889
 30
0.0
 11
-67.0999999761366
 21
483.6499998380099
 31
0.0
  0
LINE
  5
F3
330
63
100
AcDbEntity
  8
0
  6
Continuous
 62
     7
100
AcDbLine
 10
-64.8999999761381
 20
475.3344553813889
 30
0.0
 11
-64.8999999761381
 21
483.6499998380099
 31
0.0
  0
LINE
  5
F4
330
63
100
AcDbEntity
  8
0
  6
Continuous
 62
     7
100
AcDbLine
 10
-64.8999999761381
 20
483.6499998380099
 30
0.0
 11
-67.0999999761366
 21
483.6499998380099
 31
0.0
  0
LINE
  5
F5
330
63
100
AcDbEntity
  8
0
  6
Continuous
 62
     7
100
AcDbLine
 10
-67.0999999761365
 20
452.099999838019
 30
0.0
 11
-67.0999999761365
 21
455.0990448364281
 31
0.0
  0
LINE
  5
F6
330
63
100
AcDbEntity
  8
0
  6
Continuous
 62
     7
100
AcDbLine
 10
-67.0999999761366
 20
457.0999998380147
 30
0.0
 11
-67.0999999761365
 21
455.0990448364281
 31
0.0
  0
LINE
  5
F7
330
63
100
AcDbEntity
  8
0
  6
Continuous
 62
     7
100
AcDbLine
 10
-64.8999999761381
 20
457.0999998380147
 30
0.0
 11
-67.0999999761366
 21
457.0999998380147
 31
0.0
  0
LINE
  5
F8
330
63
100
AcDbEntity
  8
0
  6
Continuous
 62
     7
100
AcDbLine
 10
-67.0999999761366
 20
469.0999998380177
 30
0.0
 11
-67.0999999761366
 21
457.0999998380147
 31
0.0
  0
LINE
  5
F9
330
63
100
AcDbEntity
  8
0
  6
Continuous
 62
     7
100
AcDbLine
 10
-64.8999999761381
 20
452.099999838019
 30
0.0
 11
-64.8999999761381
 21
455.0990448364281
 31
0.0
  0
LINE
  5
FA
330
63
100
AcDbEntity
  8
0
  6
Continuous
 62
     7
100
AcDbLine
 10
-64.8999999761381
 20
457.0999998380147
 30
0.0
 11
-64.8999999761381
 21
455.0990448364281
 31
0.0
  0
LINE
  5
FB
330
63
100
AcDbEntity
  8
0
  6
Continuous
 62
     7
100
AcDbLine
 10
-64.8999999761381
 20
469.0999998380177
 30
0.0
 11
-64.8999999761381
 21
475.3344553813889
 31
0.0
  0
LINE
  5
FC
330
63
100
AcDbEntity
  8
0
  6
Continuous
 62
     7
100
AcDbLine
 10
-64.8999999761381
 20
475.3344553813889
 30
0.0
 11
-67.0999999761366
 21
475.3344553813889
 31
0.0
  0
LINE
  5
FD
330
63
100
AcDbEntity
  8
0
  6
Continuous
 62
     7
100
AcDbLine
 10
-64.8999999761381
 20
469.0999998380177
 30
0.0
 11
-67.0999999761366
 21
469.0999998380177
 31
0.0
  0
LINE
  5
FE
330
63
100
AcDbEntity
  8
0
  6
Continuous
 62
     7
100
AcDbLine
 10
-67.0999999761366
 20
469.0999998380177
 30
0.0
 11
-67.0999999761366
 21
475.3344553813889
 31
0.0
  0
LINE
  5
FF
330
63
100
AcDbEntity
  8
0
  6
Continuous
 62
     7
100
AcDbLine
 10
-64.8999999761381
 20
455.0990448364281
 30
0.0
 11
-67.0999999761365
 21
455.0990448364281
 31
0.0
  0
LINE
  5
100
330
63
100
AcDbEntity
  8
0
  6
Continuous
 62
     7
100
AcDbLine
 10
-67.0999999761365
 20
452.099999838019
 30
0.0
 11
-64.8999999761381
 21
452.099999838019
 31
0.0
  0
LINE
  5
101
330
63
100
AcDbEntity
  8
0
  6
Continuous
 62
     7
100
AcDbLine
 10
-64.8999999761381
 20
469.0999998380177
 30
0.0
 11
-64.8999999761381
 21
457.0999998380147
 31
0.0
  0
ENDBLK
  5
65
330
63
100
AcDbEntity
  8
0
100
AcDbBlockEnd
  0
BLOCK
  5
68
330
66
100
AcDbEntity
  8
0
100
AcDbBlockBegin
  2
SA_Rechts1
 70
     0
 10
-65.99999999999
 20
467.8750003576279
 30
0.0
  3
SA_Rechts1
  1

  0
INSERT
  5
67
330
66
100
AcDbEntity
  8
0
100
AcDbBlockReference
  2
D-QTC_1_5-QUATTRO-select__5
 10
-67.0999999761366
 20
452.099999838019
 30
0.0
  0
ENDBLK
  5
69
330
66
100
AcDbEntity
  8
0
100
AcDbBlockEnd
  0
BLOCK
  5
6B
330
6A
100
AcDbEntity
  8
0
100
AcDbBlockBegin
  2
D-QTC_1_5-QUATTRO-select__6
 70
     0
 10
-35.00000053761387
 20
452.0999998380189
 30
0.0
  3
D-QTC_1_5-QUATTRO-select__6
  1

  0
LINE
  5
102
330
6A
100
AcDbEntity
  8
0
  6
Continuous
 62
     7
100
AcDbLine
 10
2.0314997452862
 20
481.1499998380124
 30
0.0
 11
1.6514171263061
 21
482.0492910067183
 31
0.0
  0
LINE
  5
103
330
6A
100
AcDbEntity
  8
0
  6
Continuous
 62
     7
100
AcDbLine
 10
-1.55000053627029
 20
483.6499998380099
 30
0.0
 11
-32.77185711583365
 21
483.6499998380099
 31
0.0
  0
LINE
  5
104
330
6A
100
AcDbEntity
  8
0
  6
Continuous
 62
     7
100
AcDbLine
 10
1.6514171263061
 20
482.0492910067183
 30
0.0
 11
-1.55000053627029
 21
483.6499998380099
 31
0.0
  0
LINE
  5
105
330
6A
100
AcDbEntity
  8
0
  6
Continuous
 62
     7
100
AcDbLine
 10
58.9999994637472
 20
475.3344553813889
 30
0.0
 11
56.77185604196691
 21
483.6499998380099
 31
0.0
  0
LINE
  5
106
330
6A
100
AcDbEntity
  8
0
  6
Continuous
 62
     7
100
AcDbLine
 10
58.9999994637472
 20
469.0999998380177
 30
0.0
 11
58.9999994637472
 21
475.3344553813889
 31
0.0
  0
LINE
  5
107
330
6A
100
AcDbEntity
  8
0
  6
Continuous
 62
     7
100
AcDbLine
 10
58.9999994637484
 20
457.0999998380146
 30
0.0
 11
58.99999946374851
 21
455.0990448364281
 31
0.0
  0
LINE
  5
108
330
6A
100
AcDbEntity
  8
0
  6
Continuous
 62
     7
100
AcDbLine
 10
-32.77185711583365
 20
483.6499998380099
 30
0.0
 11
-35.00000053761387
 21
475.3344553813889
 31
0.0
  0
LINE
  5
109
330
6A
100
AcDbEntity
  8
0
  6
Continuous
 62
     7
100
AcDbLine
 10
-35.00000053761386
 20
452.0999998380189
 30
0.0
 11
49.89463570996679
 21
452.0999998380189
 31
0.0
  0
LINE
  5
10A
330
6A
100
AcDbEntity
  8
0
  6
Continuous
 62
     7
100
AcDbLine
 10
-35.00000053761386
 20
460.0999998380088
 30
0.0
 11
-35.00000053761386
 21
452.0999998380189
 31
0.0
  0
LINE
  5
10B
330
6A
100
AcDbEntity
  8
0
  6
Continuous
 62
     7
100
AcDbLine
 10
-35.00000053761387
 20
475.3344553813889
 30
0.0
 11
-35.00000053761387
 21
469.0999998380148
 31
0.0
  0
LINE
  5
10C
330
6A
100
AcDbEntity
  8
0
  6
Continuous
 62
     7
100
AcDbLine
 10
56.77185604196691
 20
483.6499998380099
 30
0.0
 11
25.4487336903142
 21
483.6499998380099
 31
0.0
  0
LINE
  5
10D
330
6A
100
AcDbEntity
  8
0
  6
Continuous
 62
     7
100
AcDbLine
 10
25.4487336903142
 20
483.6499998380099
 30
0.0
 11
22.14873369032461
 21
481.999999838017
 31
0.0
  0
LINE
  5
10E
330
6A
100
AcDbEntity
  8
0
  6
Continuous
 62
     7
100
AcDbLine
 10
22.14873369032461
 20
481.999999838017
 30
0.0
 11
22.14873369032461
 21
481.1499998380124
 31
0.0
  0
LINE
  5
10F
330
6A
100
AcDbEntity
  8
0
  6
Continuous
 62
     7
100
AcDbLine
 10
22.14873369032461
 20
481.1499998380124
 30
0.0
 11
2.0314997452862
 21
481.1499998380124
 31
0.0
  0
LINE
  5
110
330
6A
100
AcDbEntity
  8
0
  6
Continuous
 62
     7
100
AcDbLine
 10
49.89463570996679
 20
452.0999998380189
 30
0.0
 11
58.99999946374851
 21
455.0990448364281
 31
0.0
  0
ARC
  5
111
330
6A
100
AcDbEntity
  8
0
  6
Continuous
 62
     7
100
AcDbCircle
 10
72.74772654861471
 20
463.0999998380176
 30
0.0
 40
15.00000000000003
100
AcDbArc
 50
156.4218215217978
 51
203.5781784782142
  0
ARC
  5
112
330
6A
100
AcDbEntity
  8
0
  6
Continuous
 62
     7
100
AcDbCircle
 10
-49.3090885588671
 20
464.5999998380118
 30
0.0
 40
15.00000000000001
100
AcDbArc
 50
342.5423968762659
 51
17.45760312373416
  0
ENDBLK
  5
6C
330
6A
100
AcDbEntity
  8
0
100
AcDbBlockEnd
  0
BLOCK
  5
6F
330
6D
100
AcDbEntity
  8
0
100
AcDbBlockBegin
  2
Vordans1
 70
     0
 10
12.0000000000004
 20
467.8750003576279
 30
0.0
  3
Vordans1
  1

  0
INSERT
  5
6E
330
6D
100
AcDbEntity
  8
0
100
AcDbBlockReference
  2
D-QTC_1_5-QUATTRO-select__6
 10
-35.00000053761387
 20
452.0999998380189
 30
0.0
  0
DIMENSION
  5
11D
330
6D
100
AcDbEntity
  8
1
100
AcDbDimension
  2
*D18
 10
-45.00000053761386
 20
483.6499998380099
 30
0.0
 11
-48.42500053761386
 21
466.023848192797
 31
0.0
 70
    32
  1
<>
 71
     5
 42
-1.0
 53
90.0
  3
ME10_DIM_11
100
AcDbAlignedDimension
 13
-35.00000053761386
 23
452.0999998380189
 33
0.0
 14
-32.77185711583365
 24
483.6499998380099
 34
0.0
 50
90.0
100
AcDbRotatedDimension
  0
DIMENSION
  5
128
330
6D
100
AcDbEntity
  8
1
100
AcDbDimension
  2
*D19
 10
-35.00000053761386
 20
442.0999998380189
 30
0.0
 11
9.28587028529581
 21
445.3499998380189
 31
0.0
 70
    32
  1
<>
 71
     5
 42
-1.0
 53
0.00013888888889
  3
ME10_DIM_12
100
AcDbAlignedDimension
 13
58.99999946374851
 23
455.0990448364281
 33
0.0
 14
-35.00000053761386
 24
452.0999998380189
 34
0.0
100
AcDbRotatedDimension
  0
ENDBLK
  5
70
330
6D
100
AcDbEntity
  8
0
100
AcDbBlockEnd
  0
BLOCK
  5
72
330
71
100
AcDbEntity
  8
0
100
AcDbBlockBegin
  2
_rahmen
 70
     0
 10
203.5000002688122
 20
324.3810674109189
 30
0.0
  3
_rahmen
  1

  0
LINE
  5
129
330
71
100
AcDbEntity
  8
1
  6
Continuous
 62
     6
100
AcDbLine
 10
73.95519574206216
 20
354.8810674109191
 30
0.0
 11
203.5000002688139
 21
354.8810674109191
 31
0.0
  0
LINE
  5
12A
330
71
100
AcDbEntity
  8
1
  6
Continuous
 62
     7
100
AcDbLine
 10
92.15519574206218
 20
333.6310674109191
 30
0.0
 11
110.3551957420621
 21
333.6310674109191
 31
0.0
  0
LINE
  5
12B
330
71
100
AcDbEntity
  8
1
  6
Continuous
 62
     6
100
AcDbLine
 10
92.15519574206218
 20
329.3810674109191
 30
0.0
 11
73.95519574206216
 21
329.3810674109189
 31
0.0
  0
LINE
  5
12C
330
71
100
AcDbEntity
  8
1
  6
Continuous
 62
     7
100
AcDbLine
 10
92.15519574206218
 20
333.6310674109191
 30
0.0
 11
92.15519574206218
 21
329.3810674109191
 31
0.0
  0
LINE
  5
12D
330
71
100
AcDbEntity
  8
1
  6
Continuous
 62
     7
100
AcDbLine
 10
110.3551957420621
 20
333.6310674109191
 30
0.0
 11
110.3551957420621
 21
329.3810674109189
 31
0.0
  0
LINE
  5
12E
330
71
100
AcDbEntity
  8
1
  6
Continuous
 62
     7
100
AcDbLine
 10
73.95519574206216
 20
333.6310674109189
 30
0.0
 11
73.95519574206216
 21
329.3810674109189
 31
0.0
  0
LINE
  5
12F
330
71
100
AcDbEntity
  8
1
  6
Continuous
 62
     7
100
AcDbLine
 10
73.95519574206216
 20
333.6310674109189
 30
0.0
 11
92.15519574206218
 21
333.6310674109191
 31
0.0
  0
LINE
  5
130
330
71
100
AcDbEntity
  8
1
  6
Continuous
 62
     2
100
AcDbLine
 10
83.19185062862476
 20
353.0060674109189
 30
0.0
 11
83.19185062862476
 21
348.0060674109189
 31
0.0
  0
LINE
  5
131
330
71
100
AcDbEntity
  8
1
  6
Continuous
 62
     2
100
AcDbLine
 10
83.19185062862476
 20
348.0060674109189
 30
0.0
 11
78.19185062862476
 21
349.2560674109189
 31
0.0
  0
LINE
  5
132
330
71
100
AcDbEntity
  8
1
  6
Continuous
 62
     2
100
AcDbLine
 10
78.19185062862476
 20
349.2560674109189
 30
0.0
 11
78.19185062862476
 21
351.7560674109189
 31
0.0
  0
LINE
  5
133
330
71
100
AcDbEntity
  8
1
  6
Continuous
 62
     2
100
AcDbLine
 10
78.19185062862476
 20
351.7560674109189
 30
0.0
 11
83.19185062862476
 21
353.0060674109189
 31
0.0
  0
LINE
  5
134
330
71
100
AcDbEntity
  8
1
  6
Continuous
 62
     6
100
AcDbLine
 10
-48.49999973118605
 20
329.3810674109191
 30
0.0
 11
-83.49999973118594
 21
329.3810674109191
 31
0.0
  0
LINE
  5
135
330
71
100
AcDbEntity
  8
1
  6
Continuous
 62
     6
100
AcDbLine
 10
203.5000002688139
 20
346.3810674109191
 30
0.0
 11
203.5000002688135
 21
337.8810674109191
 31
0.0
  0
LINE
  5
136
330
71
100
AcDbEntity
  8
1
  6
Continuous
 62
     6
100
AcDbLine
 10
110.3551957420621
 20
329.3810674109189
 30
0.0
 11
110.0000002688122
 21
329.3810674109191
 31
0.0
  0
LINE
  5
137
330
71
100
AcDbEntity
  8
1
  6
Continuous
 62
     6
100
AcDbLine
 10
-42.29999973118805
 20
329.3810674109189
 30
0.0
 11
-48.49999973118605
 21
329.3810674109191
 31
0.0
  0
LINE
  5
138
330
71
100
AcDbEntity
  8
1
  6
Continuous
 62
     7
100
AcDbLine
 10
110.3551957420621
 20
346.3810674109191
 30
0.0
 11
110.3551957420621
 21
333.6310674109191
 31
0.0
  0
LINE
  5
139
330
71
100
AcDbEntity
  8
1
  6
Continuous
 62
     7
100
AcDbLine
 10
73.95519574206216
 20
346.3810674109191
 30
0.0
 11
73.95519574206216
 21
333.6310674109189
 31
0.0
  0
LINE
  5
13A
330
71
100
AcDbEntity
  8
1
  6
Continuous
 62
     6
100
AcDbLine
 10
60.00000026881219
 20
329.3810674109191
 30
0.0
 11
10.00000026881196
 21
329.3810674109191
 31
0.0
  0
LINE
  5
13B
330
71
100
AcDbEntity
  8
1
  6
Continuous
 62
     6
100
AcDbLine
 10
-42.29999973118805
 20
329.3810674109189
 30
0.0
 11
-39.99999973118781
 21
329.3810674109191
 31
0.0
  0
LINE
  5
13C
330
71
100
AcDbEntity
  8
1
  6
Continuous
 62
     6
100
AcDbLine
 10
110.3551957420621
 20
329.3810674109189
 30
0.0
 11
160.0000002688122
 21
329.3810674109191
 31
0.0
  0
LINE
  5
13D
330
71
100
AcDbEntity
  8
1
  6
Continuous
 62
     6
100
AcDbLine
 10
203.5000002688122
 20
329.3810674109191
 30
0.0
 11
203.5000002688135
 21
337.8810674109191
 31
0.0
  0
LINE
  5
13E
330
71
100
AcDbEntity
  8
1
  6
Continuous
 62
     2
100
AcDbLine
 10
-88.4999997311869
 20
329.3810674109191
 30
0.0
 11
-88.4999997311869
 21
324.3810674109189
 31
0.0
  0
LINE
  5
13F
330
71
100
AcDbEntity
  8
1
  6
Continuous
 62
     2
100
AcDbLine
 10
-83.49999973118594
 20
329.3810674109191
 30
0.0
 11
-88.4999997311869
 21
329.3810674109191
 31
0.0
  0
LINE
  5
140
330
71
100
AcDbEntity
  8
1
  6
Continuous
 62
     2
100
AcDbLine
 10
-83.49999973118594
 20
324.3810674109189
 30
0.0
 11
-39.99999973118781
 21
324.3810674109189
 31
0.0
  0
LINE
  5
141
330
71
100
AcDbEntity
  8
1
  6
Continuous
 62
     2
100
AcDbLine
 10
-83.49999973118594
 20
329.3810674109191
 30
0.0
 11
-83.49999973118594
 21
324.3810674109189
 31
0.0
  0
LINE
  5
142
330
71
100
AcDbEntity
  8
1
  6
Continuous
 62
     2
100
AcDbLine
 10
160.0000002688122
 20
324.3810674109189
 30
0.0
 11
110.0000002688122
 21
324.3810674109189
 31
0.0
  0
LINE
  5
143
330
71
100
AcDbEntity
  8
1
  6
Continuous
 62
     2
100
AcDbLine
 10
160.0000002688122
 20
324.3810674109189
 30
0.0
 11
160.0000002688122
 21
329.3810674109191
 31
0.0
  0
LINE
  5
144
330
71
100
AcDbEntity
  8
1
  6
Continuous
 62
     2
100
AcDbLine
 10
110.0000002688122
 20
324.3810674109189
 30
0.0
 11
110.0000002688122
 21
329.3810674109191
 31
0.0
  0
LINE
  5
145
330
71
100
AcDbEntity
  8
1
  6
Continuous
 62
     2
100
AcDbLine
 10
60.00000026881219
 20
324.3810674109189
 30
0.0
 11
110.0000002688122
 21
324.3810674109189
 31
0.0
  0
LINE
  5
146
330
71
100
AcDbEntity
  8
1
  6
Continuous
 62
     2
100
AcDbLine
 10
60.00000026881219
 20
324.3810674109189
 30
0.0
 11
60.00000026881219
 21
329.3810674109191
 31
0.0
  0
LINE
  5
147
330
71
100
AcDbEntity
  8
1
  6
Continuous
 62
     2
100
AcDbLine
 10
10.00000026881196
 20
324.3810674109189
 30
0.0
 11
60.00000026881219
 21
324.3810674109189
 31
0.0
  0
LINE
  5
148
330
71
100
AcDbEntity
  8
1
  6
Continuous
 62
     2
100
AcDbLine
 10
10.00000026881196
 20
324.3810674109189
 30
0.0
 11
10.00000026881196
 21
329.3810674109191
 31
0.0
  0
LINE
  5
149
330
71
100
AcDbEntity
  8
1
  6
Continuous
 62
     2
100
AcDbLine
 10
-39.99999973118781
 20
324.3810674109189
 30
0.0
 11
10.00000026881196
 21
324.3810674109189
 31
0.0
  0
LINE
  5
14A
330
71
100
AcDbEntity
  8
1
  6
Continuous
 62
     2
100
AcDbLine
 10
-39.99999973118781
 20
324.3810674109189
 30
0.0
 11
-39.99999973118781
 21
329.3810674109191
 31
0.0
  0
LINE
  5
14B
330
71
100
AcDbEntity
  8
1
  6
Continuous
 62
     6
100
AcDbLine
 10
-83.49999973118611
 20
379.3810674109192
 30
0.0
 11
-83.49999973118594
 21
329.3810674109191
 31
0.0
  0
LINE
  5
14C
330
71
100
AcDbEntity
  8
1
  6
Continuous
 62
     2
100
AcDbLine
 10
-88.4999997311869
 20
379.3810674109192
 30
0.0
 11
-88.4999997311869
 21
329.3810674109191
 31
0.0
  0
LINE
  5
14D
330
71
100
AcDbEntity
  8
1
  6
Continuous
 62
     2
100
AcDbLine
 10
-88.4999997311869
 20
379.3810674109192
 30
0.0
 11
-83.49999973118611
 21
379.3810674109192
 31
0.0
  0
LINE
  5
14E
330
71
100
AcDbEntity
  8
1
  6
Continuous
 62
     6
100
AcDbLine
 10
-83.49999973118634
 20
429.3810674109189
 30
0.0
 11
-83.49999973118611
 21
379.3810674109192
 31
0.0
  0
LINE
  5
14F
330
71
100
AcDbEntity
  8
1
  6
Continuous
 62
     2
100
AcDbLine
 10
-88.4999997311869
 20
429.3810674109189
 30
0.0
 11
-88.4999997311869
 21
379.3810674109192
 31
0.0
  0
LINE
  5
150
330
71
100
AcDbEntity
  8
1
  6
Continuous
 62
     2
100
AcDbLine
 10
-88.4999997311869
 20
429.3810674109189
 30
0.0
 11
-83.49999973118634
 21
429.3810674109189
 31
0.0
  0
LINE
  5
151
330
71
100
AcDbEntity
  8
1
  6
Continuous
 62
     6
100
AcDbLine
 10
-83.49999973118685
 20
479.3810674109191
 30
0.0
 11
-83.49999973118634
 21
429.3810674109189
 31
0.0
  0
LINE
  5
152
330
71
100
AcDbEntity
  8
1
  6
Continuous
 62
     2
100
AcDbLine
 10
-88.4999997311869
 20
479.3810674109191
 30
0.0
 11
-88.4999997311869
 21
429.3810674109189
 31
0.0
  0
LINE
  5
153
330
71
100
AcDbEntity
  8
1
  6
Continuous
 62
     2
100
AcDbLine
 10
-88.4999997311869
 20
479.3810674109191
 30
0.0
 11
-83.49999973118685
 21
479.3810674109191
 31
0.0
  0
LINE
  5
154
330
71
100
AcDbEntity
  8
1
  6
Continuous
 62
     6
100
AcDbLine
 10
-83.4999997311869
 20
514.3810674109191
 30
0.0
 11
-83.49999973118685
 21
479.3810674109191
 31
0.0
  0
LINE
  5
155
330
71
100
AcDbEntity
  8
1
  6
Continuous
 62
     2
100
AcDbLine
 10
-88.4999997311869
 20
534.3810674109191
 30
0.0
 11
-88.4999997311869
 21
479.3810674109191
 31
0.0
  0
LINE
  5
156
330
71
100
AcDbEntity
  8
1
  6
Continuous
 62
     2
100
AcDbLine
 10
-88.4999997311869
 20
324.3810674109189
 30
0.0
 11
-83.49999973118594
 21
324.3810674109189
 31
0.0
  0
LINE
  5
157
330
71
100
AcDbEntity
  8
1
  6
Continuous
 62
     2
100
AcDbLine
 10
60.00000026881219
 20
534.3810674109191
 30
0.0
 11
60.00000026881219
 21
525.1723755662177
 31
0.0
  0
LINE
  5
158
330
71
100
AcDbEntity
  8
1
  6
Continuous
 62
     2
100
AcDbLine
 10
60.00000026881219
 20
534.3810674109191
 30
0.0
 11
-88.4999997311869
 21
534.3810674109191
 31
0.0
  0
LINE
  5
159
330
71
100
AcDbEntity
  8
1
  6
Continuous
 62
     2
100
AcDbLine
 10
208.5000002688112
 20
329.3810674109191
 30
0.0
 11
208.5000002688112
 21
379.3810674109192
 31
0.0
  0
LINE
  5
15A
330
71
100
AcDbEntity
  8
1
  6
Continuous
 62
     2
100
AcDbLine
 10
208.5000002688112
 20
479.3810674109191
 30
0.0
 11
208.5000002688112
 21
534.3810674109191
 31
0.0
  0
LINE
  5
15B
330
71
100
AcDbEntity
  8
1
  6
Continuous
 62
     6
100
AcDbLine
 10
203.5000002688114
 20
479.3810674109191
 30
0.0
 11
203.5000002688112
 21
514.3810674109191
 31
0.0
  0
LINE
  5
15C
330
71
100
AcDbEntity
  8
1
  6
Continuous
 62
     2
100
AcDbLine
 10
203.5000002688114
 20
479.3810674109191
 30
0.0
 11
208.5000002688112
 21
479.3810674109191
 31
0.0
  0
LINE
  5
15D
330
71
100
AcDbEntity
  8
1
  6
Continuous
 62
     2
100
AcDbLine
 10
208.5000002688112
 20
429.3810674109189
 30
0.0
 11
208.5000002688112
 21
479.3810674109191
 31
0.0
  0
LINE
  5
15E
330
71
100
AcDbEntity
  8
1
  6
Continuous
 62
     6
100
AcDbLine
 10
203.5000002688126
 20
429.3810674109189
 30
0.0
 11
203.5000002688114
 21
479.3810674109191
 31
0.0
  0
LINE
  5
15F
330
71
100
AcDbEntity
  8
1
  6
Continuous
 62
     2
100
AcDbLine
 10
203.5000002688126
 20
429.3810674109189
 30
0.0
 11
208.5000002688112
 21
429.3810674109189
 31
0.0
  0
LINE
  5
160
330
71
100
AcDbEntity
  8
1
  6
Continuous
 62
     2
100
AcDbLine
 10
208.5000002688112
 20
379.3810674109192
 30
0.0
 11
208.5000002688112
 21
429.3810674109189
 31
0.0
  0
LINE
  5
161
330
71
100
AcDbEntity
  8
1
  6
Continuous
 62
     6
100
AcDbLine
 10
203.5000002688131
 20
379.3810674109192
 30
0.0
 11
203.5000002688126
 21
429.3810674109189
 31
0.0
  0
LINE
  5
162
330
71
100
AcDbEntity
  8
1
  6
Continuous
 62
     2
100
AcDbLine
 10
203.5000002688131
 20
379.3810674109192
 30
0.0
 11
208.5000002688112
 21
379.3810674109192
 31
0.0
  0
LINE
  5
163
330
71
100
AcDbEntity
  8
1
  6
Continuous
 62
     6
100
AcDbLine
 10
203.5000002688112
 20
514.3810674109191
 30
0.0
 11
-83.4999997311869
 21
514.3810674109191
 31
0.0
  0
LINE
  5
164
330
71
100
AcDbEntity
  8
1
  6
Continuous
 62
     2
100
AcDbLine
 10
208.5000002688112
 20
534.3810674109191
 30
0.0
 11
60.00000026881219
 21
534.3810674109191
 31
0.0
  0
LINE
  5
165
330
71
100
AcDbEntity
  8
1
  6
Continuous
 62
     6
100
AcDbLine
 10
203.5000002688139
 20
346.3810674109191
 30
0.0
 11
203.5000002688131
 21
379.3810674109192
 31
0.0
  0
LINE
  5
166
330
71
100
AcDbEntity
  8
1
  6
Continuous
 62
     2
100
AcDbLine
 10
203.5000002688122
 20
324.3810674109189
 30
0.0
 11
160.0000002688122
 21
324.3810674109189
 31
0.0
  0
LINE
  5
167
330
71
100
AcDbEntity
  8
1
  6
Continuous
 62
     2
100
AcDbLine
 10
208.5000002688112
 20
324.3810674109189
 30
0.0
 11
203.5000002688122
 21
324.3810674109189
 31
0.0
  0
LINE
  5
168
330
71
100
AcDbEntity
  8
1
  6
Continuous
 62
     2
100
AcDbLine
 10
208.5000002688112
 20
324.3810674109189
 30
0.0
 11
208.5000002688112
 21
329.3810674109191
 31
0.0
  0
LINE
  5
169
330
71
100
AcDbEntity
  8
1
  6
Continuous
 62
     6
100
AcDbLine
 10
73.95519574206216
 20
346.3810674109191
 30
0.0
 11
110.3551957420621
 21
346.3810674109191
 31
0.0
  0
LINE
  5
16A
330
71
100
AcDbEntity
  8
1
  6
Continuous
 62
     2
100
AcDbLine
 10
203.5000002688122
 20
329.3810674109191
 30
0.0
 11
203.5000002688122
 21
324.3810674109189
 31
0.0
  0
LINE
  5
16B
330
71
100
AcDbEntity
  8
1
  6
Continuous
 62
     2
100
AcDbLine
 10
203.5000002688122
 20
329.3810674109191
 30
0.0
 11
208.5000002688112
 21
329.3810674109191
 31
0.0
  0
LINE
  5
16C
330
71
100
AcDbEntity
  8
1
  6
Continuous
 62
     6
100
AcDbLine
 10
110.0000002688122
 20
329.3810674109191
 30
0.0
 11
92.15519574206218
 21
329.3810674109191
 31
0.0
  0
LINE
  5
16D
330
71
100
AcDbEntity
  8
1
  6
Continuous
 62
     6
100
AcDbLine
 10
160.0000002688122
 20
329.3810674109191
 30
0.0
 11
203.5000002688122
 21
329.3810674109191
 31
0.0
  0
LINE
  5
16E
330
71
100
AcDbEntity
  8
1
  6
Continuous
 62
     6
100
AcDbLine
 10
10.00000026881196
 20
329.3810674109191
 30
0.0
 11
4.95519574206219
 21
329.3810674109191
 31
0.0
  0
LINE
  5
16F
330
71
100
AcDbEntity
  8
1
  6
Continuous
 62
     6
100
AcDbLine
 10
60.00000026881219
 20
329.3810674109191
 30
0.0
 11
73.95519574206216
 21
329.3810674109189
 31
0.0
  0
LINE
  5
170
102
{ACAD_REACTORS
330
25A
330
25B
102
}
330
71
100
AcDbEntity
  8
0
  6
Continuous
 62
     2
100
AcDbLine
 10
81.46982168420897
 20
341.4535821671312
 30
0.0
 11
81.46982168420897
 21
342.059117455638
 31
0.0
  0
LINE
  5
171
102
{ACAD_REACTORS
330
25A
330
25B
102
}
330
71
100
AcDbEntity
  8
0
  6
Continuous
 62
     2
100
AcDbLine
 10
81.46982168420897
 20
338.6534475604999
 30
0.0
 11
81.46982168420897
 21
339.2352989671949
 31
0.0
  0
LINE
  5
172
102
{ACAD_REACTORS
330
25C
330
25D
102
}
330
71
100
AcDbEntity
  8
0
  6
Continuous
 62
     2
100
AcDbLine
 10
104.0993081196882
 20
338.9431116286229
 30
0.0
 11
104.0993081196882
 21
336.6745674109354
 31
0.0
  0
LINE
  5
173
102
{ACAD_REACTORS
330
25C
330
25D
102
}
330
71
100
AcDbEntity
  8
0
  6
Continuous
 62
     2
100
AcDbLine
 10
102.7182543407006
 20
339.7283769347459
 30
0.0
 11
106.1031998593293
 21
339.7283769347465
 31
0.0
  0
LINE
  5
174
102
{ACAD_REACTORS
330
25C
330
25D
102
}
330
71
100
AcDbEntity
  8
0
  6
Continuous
 62
     2
100
AcDbLine
 10
106.1031998593293
 20
338.9431116286229
 30
0.0
 11
106.1031998593293
 21
339.7283769347465
 31
0.0
  0
LINE
  5
175
102
{ACAD_REACTORS
330
25C
330
25D
102
}
330
71
100
AcDbEntity
  8
0
  6
Continuous
 62
     2
100
AcDbLine
 10
105.2921008218559
 20
338.9431116286229
 30
0.0
 11
106.1031998593293
 21
338.9431116286229
 31
0.0
  0
LINE
  5
176
102
{ACAD_REACTORS
330
25C
330
25D
102
}
330
71
100
AcDbEntity
  8
0
  6
Continuous
 62
     2
100
AcDbLine
 10
105.2921008218559
 20
336.6745674109354
 30
0.0
 11
105.2921008218559
 21
338.9431116286229
 31
0.0
  0
LINE
  5
177
102
{ACAD_REACTORS
330
25C
330
25D
102
}
330
71
100
AcDbEntity
  8
0
  6
Continuous
 62
     2
100
AcDbLine
 10
104.0993081196882
 20
336.6745674109354
 30
0.0
 11
105.2921008218559
 21
336.6745674109354
 31
0.0
  0
LINE
  5
178
102
{ACAD_REACTORS
330
252
330
253
102
}
330
71
100
AcDbEntity
  8
0
  6
Continuous
 62
     2
100
AcDbLine
 10
103.4027171816237
 20
343.0875674109209
 30
0.0
 11
101.9999929638744
 21
343.0875674109209
 31
0.0
  0
LINE
  5
179
102
{ACAD_REACTORS
330
252
330
253
102
}
330
71
100
AcDbEntity
  8
0
  6
Continuous
 62
     2
100
AcDbLine
 10
103.4027171816237
 20
343.0875674109209
 30
0.0
 11
104.0038847035155
 21
342.4077440893653
 31
0.0
  0
LINE
  5
17A
102
{ACAD_REACTORS
330
252
330
253
102
}
330
71
100
AcDbEntity
  8
0
  6
Continuous
 62
     2
100
AcDbLine
 10
104.0038847035155
 20
342.4077440893653
 30
0.0
 11
104.6050522254083
 21
343.0875674109209
 31
0.0
  0
LINE
  5
17B
102
{ACAD_REACTORS
330
252
330
253
102
}
330
71
100
AcDbEntity
  8
0
  6
Continuous
 62
     2
100
AcDbLine
 10
104.705246812389
 20
341.6146168808847
 30
0.0
 11
106.0077764431555
 21
343.0875674109209
 31
0.0
  0
LINE
  5
17C
102
{ACAD_REACTORS
330
252
330
253
102
}
330
71
100
AcDbEntity
  8
0
  6
Continuous
 62
     2
100
AcDbLine
 10
104.705246812389
 20
341.6146168808847
 30
0.0
 11
106.1031998593293
 21
340.0337578871097
 31
0.0
  0
LINE
  5
17D
102
{ACAD_REACTORS
330
252
330
253
102
}
330
71
100
AcDbEntity
  8
0
  6
Continuous
 62
     2
100
AcDbLine
 10
104.700475641581
 20
340.0337578871097
 30
0.0
 11
106.1031998593293
 21
340.0337578871097
 31
0.0
  0
LINE
  5
17E
102
{ACAD_REACTORS
330
252
330
253
102
}
330
71
100
AcDbEntity
  8
0
  6
Continuous
 62
     2
100
AcDbLine
 10
104.0038847035155
 20
340.8214896724034
 30
0.0
 11
104.700475641581
 21
340.0337578871097
 31
0.0
  0
LINE
  5
17F
102
{ACAD_REACTORS
330
250
330
251
102
}
330
71
100
AcDbEntity
  8
0
  6
Continuous
 62
     2
100
AcDbLine
 10
100.5447858672318
 20
343.0875674109209
 30
0.0
 11
101.7852902774847
 21
343.0875674109209
 31
0.0
  0
LINE
  5
180
102
{ACAD_REACTORS
330
250
330
251
102
}
330
71
100
AcDbEntity
  8
0
  6
Continuous
 62
     2
100
AcDbLine
 10
101.7852902774847
 20
343.0875674109209
 30
0.0
 11
101.7852902774847
 21
340.0337578871097
 31
0.0
  0
LINE
  5
181
102
{ACAD_REACTORS
330
250
330
251
102
}
330
71
100
AcDbEntity
  8
0
  6
Continuous
 62
     2
100
AcDbLine
 10
100.5447858672318
 20
340.0337578871097
 30
0.0
 11
100.5447858672318
 21
343.0875674109209
 31
0.0
  0
LINE
  5
182
102
{ACAD_REACTORS
330
24E
330
24F
102
}
330
71
100
AcDbEntity
  8
0
  6
Continuous
 62
     2
100
AcDbLine
 10
99.07647578469417
 20
337.8960912204599
 30
0.0
 11
99.37664102188657
 21
338.6639061864465
 31
0.0
  0
LINE
  5
183
102
{ACAD_REACTORS
330
24E
330
24F
102
}
330
71
100
AcDbEntity
  8
0
  6
Continuous
 62
     2
100
AcDbLine
 10
98.59894018007336
 20
336.6745674109354
 30
0.0
 11
98.81042023354917
 21
337.2155279551532
 31
0.0
  0
LINE
  5
184
102
{ACAD_REACTORS
330
24E
330
24F
102
}
330
71
100
AcDbEntity
  8
0
  6
Continuous
 62
     2
100
AcDbLine
 10
98.75638881675968
 20
339.7283769347465
 30
0.0
 11
97.35843576982037
 21
336.6745674109354
 31
0.0
  0
LINE
  5
185
102
{ACAD_REACTORS
330
24E
330
24F
102
}
330
71
100
AcDbEntity
  8
0
  6
Continuous
 62
     2
100
AcDbLine
 10
101.3948462739527
 20
336.6745674109354
 30
0.0
 11
100.1543418636988
 21
336.6745674109354
 31
0.0
  0
LINE
  5
186
102
{ACAD_REACTORS
330
24E
330
24F
102
}
330
71
100
AcDbEntity
  8
0
  6
Continuous
 62
     2
100
AcDbLine
 10
98.81042023354917
 20
337.2155279551532
 30
0.0
 11
99.94286181022298
 21
337.2155279551532
 31
0.0
  0
LINE
  5
187
102
{ACAD_REACTORS
330
24C
330
24D
102
}
330
71
100
AcDbEntity
  8
0
  6
Continuous
 62
     2
100
AcDbLine
 10
95.20092363063816
 20
338.9431116286229
 30
0.0
 11
96.01202266811276
 21
338.9431116286229
 31
0.0
  0
LINE
  5
188
102
{ACAD_REACTORS
330
24C
330
24D
102
}
330
71
100
AcDbEntity
  8
0
  6
Continuous
 62
     2
100
AcDbLine
 10
98.01591440775178
 20
339.7283769347465
 30
0.0
 11
95.20092363063816
 21
339.7283769347465
 31
0.0
  0
LINE
  5
189
102
{ACAD_REACTORS
330
24C
330
24D
102
}
330
71
100
AcDbEntity
  8
0
  6
Continuous
 62
     2
100
AcDbLine
 10
98.01591440775178
 20
338.9431116286229
 30
0.0
 11
98.01591440775178
 21
339.7283769347465
 31
0.0
  0
LINE
  5
18A
102
{ACAD_REACTORS
330
24C
330
24D
102
}
330
71
100
AcDbEntity
  8
0
  6
Continuous
 62
     2
100
AcDbLine
 10
97.20481537027928
 20
338.9431116286229
 30
0.0
 11
98.01591440775178
 21
338.9431116286229
 31
0.0
  0
LINE
  5
18B
102
{ACAD_REACTORS
330
24C
330
24D
102
}
330
71
100
AcDbEntity
  8
0
  6
Continuous
 62
     2
100
AcDbLine
 10
97.20481537027928
 20
336.6745674109354
 30
0.0
 11
97.20481537027928
 21
338.9431116286229
 31
0.0
  0
LINE
  5
18C
102
{ACAD_REACTORS
330
24A
330
24B
102
}
330
71
100
AcDbEntity
  8
0
  6
Continuous
 62
     2
100
AcDbLine
 10
97.87293021437728
 20
340.0337578871097
 30
0.0
 11
97.87293021437728
 21
341.3425333973144
 31
0.0
  0
LINE
  5
18D
102
{ACAD_REACTORS
330
24A
330
24B
102
}
330
71
100
AcDbEntity
  8
0
  6
Continuous
 62
     2
100
AcDbLine
 10
96.68013751221076
 20
343.0875674109209
 30
0.0
 11
96.68013751221076
 21
340.0337578871097
 31
0.0
  0
LINE
  5
18E
102
{ACAD_REACTORS
330
24A
330
24B
102
}
330
71
100
AcDbEntity
  8
0
  6
Continuous
 62
     2
100
AcDbLine
 10
97.87293021437728
 20
343.0875674109209
 30
0.0
 11
96.68013751221076
 21
343.0875674109209
 31
0.0
  0
LINE
  5
18F
102
{ACAD_REACTORS
330
24A
330
24B
102
}
330
71
100
AcDbEntity
  8
0
  6
Continuous
 62
     2
100
AcDbLine
 10
99.11343462463128
 20
343.0875674109209
 30
0.0
 11
99.11343462463128
 21
341.7787919007157
 31
0.0
  0
LINE
  5
190
102
{ACAD_REACTORS
330
248
330
249
102
}
330
71
100
AcDbEntity
  8
0
  6
Continuous
 62
     2
100
AcDbLine
 10
91.43169869179107
 20
339.7283769347465
 30
0.0
 11
91.43169869179107
 21
336.6745674109354
 31
0.0
  0
LINE
  5
191
102
{ACAD_REACTORS
330
248
330
249
102
}
330
71
100
AcDbEntity
  8
0
  6
Continuous
 62
     2
100
AcDbLine
 10
92.62449139395866
 20
339.7283769347465
 30
0.0
 11
91.43169869179107
 21
339.7283769347465
 31
0.0
  0
LINE
  5
192
102
{ACAD_REACTORS
330
248
330
249
102
}
330
71
100
AcDbEntity
  8
0
  6
Continuous
 62
     2
100
AcDbLine
 10
93.86499580421156
 20
336.6745674109354
 30
0.0
 11
95.05778850637796
 21
336.6745674109354
 31
0.0
  0
LINE
  5
193
102
{ACAD_REACTORS
330
248
330
249
102
}
330
71
100
AcDbEntity
  8
0
  6
Continuous
 62
     2
100
AcDbLine
 10
91.43169869179107
 20
336.6745674109354
 30
0.0
 11
92.62449139395866
 21
336.6745674109354
 31
0.0
  0
LINE
  5
194
102
{ACAD_REACTORS
330
258
330
259
102
}
330
71
100
AcDbEntity
  8
0
  6
Continuous
 62
     2
100
AcDbLine
 10
95.10565114535018
 20
341.9096694517361
 30
0.0
 11
95.10565114535018
 21
342.3895538054779
 31
0.0
  0
LINE
  5
195
102
{ACAD_REACTORS
330
258
330
259
102
}
330
71
100
AcDbEntity
  8
0
  6
Continuous
 62
     2
100
AcDbLine
 10
96.44157897177786
 20
341.9096694517361
 30
0.0
 11
95.10565114535018
 21
341.9096694517361
 31
0.0
  0
LINE
  5
196
102
{ACAD_REACTORS
330
258
330
259
102
}
330
71
100
AcDbEntity
  8
0
  6
Continuous
 62
     2
100
AcDbLine
 10
96.44157897177786
 20
341.2116558462939
 30
0.0
 11
96.44157897177786
 21
341.9096694517361
 31
0.0
  0
LINE
  5
197
102
{ACAD_REACTORS
330
258
330
259
102
}
330
71
100
AcDbEntity
  8
0
  6
Continuous
 62
     2
100
AcDbLine
 10
95.10565114535018
 20
341.2116558462939
 30
0.0
 11
96.44157897177786
 21
341.2116558462939
 31
0.0
  0
LINE
  5
198
102
{ACAD_REACTORS
330
246
330
247
102
}
330
71
100
AcDbEntity
  8
0
  6
Continuous
 62
     2
100
AcDbLine
 10
91.62269645502326
 20
343.0875674109209
 30
0.0
 11
91.62269645502326
 21
340.0337578871097
 31
0.0
  0
LINE
  5
199
102
{ACAD_REACTORS
330
246
330
247
102
}
330
71
100
AcDbEntity
  8
0
  6
Continuous
 62
     2
100
AcDbLine
 10
91.62269645502326
 20
340.0337578871097
 30
0.0
 11
90.42990375285686
 21
340.0337578871097
 31
0.0
  0
LINE
  5
19A
102
{ACAD_REACTORS
330
246
330
247
102
}
330
71
100
AcDbEntity
  8
0
  6
Continuous
 62
     2
100
AcDbLine
 10
90.42990375285686
 20
340.0337578871097
 30
0.0
 11
90.42990375285686
 21
341.1680299959535
 31
0.0
  0
LINE
  5
19B
102
{ACAD_REACTORS
330
246
330
247
102
}
330
71
100
AcDbEntity
  8
0
  6
Continuous
 62
     2
100
AcDbLine
 10
89.38024617494938
 20
340.0337578871097
 30
0.0
 11
88.18745347278278
 21
340.0337578871097
 31
0.0
  0
LINE
  5
19C
102
{ACAD_REACTORS
330
246
330
247
102
}
330
71
100
AcDbEntity
  8
0
  6
Continuous
 62
     2
100
AcDbLine
 10
88.18745347278278
 20
343.0875674109209
 30
0.0
 11
89.38024617494938
 21
343.0875674109209
 31
0.0
  0
LINE
  5
19D
102
{ACAD_REACTORS
330
246
330
247
102
}
330
71
100
AcDbEntity
  8
0
  6
Continuous
 62
     2
100
AcDbLine
 10
89.38024617494938
 20
343.0875674109209
 30
0.0
 11
89.38024617494938
 21
342.0187340775863
 31
0.0
  0
LINE
  5
19E
102
{ACAD_REACTORS
330
246
330
247
102
}
330
71
100
AcDbEntity
  8
0
  6
Continuous
 62
     2
100
AcDbLine
 10
89.38024617494938
 20
342.0187340775863
 30
0.0
 11
90.42990375285686
 21
342.0187340775863
 31
0.0
  0
LINE
  5
19F
102
{ACAD_REACTORS
330
254
330
255
102
}
330
71
100
AcDbEntity
  8
0
  6
Continuous
 62
     2
100
AcDbLine
 10
86.23127344122918
 20
342.4244615654808
 30
0.0
 11
86.54856850277108
 21
342.4244615654808
 31
0.0
  0
LINE
  5
1A0
102
{ACAD_REACTORS
330
254
330
255
102
}
330
71
100
AcDbEntity
  8
0
  6
Continuous
 62
     2
100
AcDbLine
 10
86.23127344122918
 20
341.7187339161386
 30
0.0
 11
86.54856850277108
 21
341.7187339161386
 31
0.0
  0
LINE
  5
1A1
102
{ACAD_REACTORS
330
254
330
255
102
}
330
71
100
AcDbEntity
  8
0
  6
Continuous
 62
     2
100
AcDbLine
 10
84.99076903097506
 20
343.0875674109209
 30
0.0
 11
84.99076903097506
 21
340.0337578871097
 31
0.0
  0
LINE
  5
1A2
102
{ACAD_REACTORS
330
254
330
255
102
}
330
71
100
AcDbEntity
  8
0
  6
Continuous
 62
     2
100
AcDbLine
 10
84.99076903097506
 20
343.0875674109209
 30
0.0
 11
86.99004102900946
 21
343.0875674109209
 31
0.0
  0
LINE
  5
1A3
102
{ACAD_REACTORS
330
254
330
255
102
}
330
71
100
AcDbEntity
  8
0
  6
Continuous
 62
     2
100
AcDbLine
 10
86.23127344122918
 20
340.9768361282535
 30
0.0
 11
86.99004102900946
 21
340.9768361282535
 31
0.0
  0
LINE
  5
1A4
102
{ACAD_REACTORS
330
25A
330
25B
102
}
330
71
100
AcDbEntity
  8
0
  6
Continuous
 62
     2
100
AcDbLine
 10
78.89427299767837
 20
342.0592949322861
 30
0.0
 11
78.89427299767837
 21
337.702839889569
 31
0.0
  0
LINE
  5
1A5
102
{ACAD_REACTORS
330
25A
330
25B
102
}
330
71
100
AcDbEntity
  8
0
  6
Continuous
 62
     2
100
AcDbLine
 10
79.20998992075405
 20
342.3750118553622
 30
0.0
 11
80.68582318176368
 21
342.3750118553622
 31
0.0
  0
LINE
  5
1A6
102
{ACAD_REACTORS
330
25A
330
25B
102
}
330
71
100
AcDbEntity
  8
0
  6
Continuous
 62
     2
100
AcDbLine
 10
81.00154010484027
 20
341.4552703132256
 30
0.0
 11
81.00154010484027
 21
342.0592949322861
 31
0.0
  0
LINE
  5
1A7
102
{ACAD_REACTORS
330
25A
330
25B
102
}
330
71
100
AcDbEntity
  8
0
  6
Continuous
 62
     2
100
AcDbLine
 10
81.00154010484027
 20
337.702839889569
 30
0.0
 11
81.00154010484027
 21
339.2336108211006
 31
0.0
  0
LINE
  5
1A8
102
{ACAD_REACTORS
330
25A
330
25B
102
}
330
71
100
AcDbEntity
  8
0
  6
Continuous
 62
     2
100
AcDbLine
 10
84.08940733472437
 20
336.6745674109354
 30
0.0
 11
78.61609524400757
 21
336.6745674109354
 31
0.0
  0
LINE
  5
1A9
102
{ACAD_REACTORS
330
25A
330
25B
102
}
330
71
100
AcDbEntity
  8
0
  6
Continuous
 62
     2
100
AcDbLine
 10
84.51365195010825
 20
342.6633227955189
 30
0.0
 11
84.51365195010825
 21
337.0988120263187
 31
0.0
  0
LINE
  5
1AA
102
{ACAD_REACTORS
330
25A
330
25B
102
}
330
71
100
AcDbEntity
  8
0
  6
Continuous
 62
     2
100
AcDbLine
 10
78.61609524400757
 20
343.0875674109027
 30
0.0
 11
84.08940733472437
 21
343.0875674109027
 31
0.0
  0
LINE
  5
1AB
102
{ACAD_REACTORS
330
25A
330
25B
102
}
330
71
100
AcDbEntity
  8
0
  6
Continuous
 62
     2
100
AcDbLine
 10
78.19185062862476
 20
342.6633227955189
 30
0.0
 11
78.19185062862476
 21
337.0988120263187
 31
0.0
  0
LINE
  5
1AC
102
{ACAD_REACTORS
330
25A
330
25B
102
}
330
71
100
AcDbEntity
  8
0
  6
Continuous
 62
     2
100
AcDbLine
 10
80.68582318176368
 20
337.3871229664923
 30
0.0
 11
79.20998992075405
 21
337.3871229664923
 31
0.0
  0
LINE
  5
1AD
102
{ACAD_REACTORS
330
254
330
255
102
}
330
71
100
AcDbEntity
  8
0
  6
Continuous
 62
     2
100
AcDbLine
 10
86.23127344122918
 20
340.0337578871097
 30
0.0
 11
86.23127344122918
 21
340.9768361282535
 31
0.0
  0
LINE
  5
1AE
102
{ACAD_REACTORS
330
254
330
255
102
}
330
71
100
AcDbEntity
  8
0
  6
Continuous
 62
     2
100
AcDbLine
 10
84.99076903097506
 20
340.0337578871097
 30
0.0
 11
86.23127344122918
 21
340.0337578871097
 31
0.0
  0
LINE
  5
1AF
102
{ACAD_REACTORS
330
254
330
255
102
}
330
71
100
AcDbEntity
  8
0
  6
Continuous
 62
     2
100
AcDbLine
 10
86.23127344122918
 20
341.7187339161386
 30
0.0
 11
86.23127344122918
 21
342.4244615654808
 31
0.0
  0
LINE
  5
1B0
102
{ACAD_REACTORS
330
246
330
247
102
}
330
71
100
AcDbEntity
  8
0
  6
Continuous
 62
     2
100
AcDbLine
 10
88.18745347278278
 20
343.0875674109209
 30
0.0
 11
88.18745347278278
 21
340.0337578871097
 31
0.0
  0
LINE
  5
1B1
102
{ACAD_REACTORS
330
246
330
247
102
}
330
71
100
AcDbEntity
  8
0
  6
Continuous
 62
     2
100
AcDbLine
 10
89.38024617494938
 20
341.1680299959535
 30
0.0
 11
89.38024617494938
 21
340.0337578871097
 31
0.0
  0
LINE
  5
1B2
102
{ACAD_REACTORS
330
246
330
247
102
}
330
71
100
AcDbEntity
  8
0
  6
Continuous
 62
     2
100
AcDbLine
 10
90.42990375285686
 20
341.1680299959535
 30
0.0
 11
89.38024617494938
 21
341.1680299959535
 31
0.0
  0
LINE
  5
1B3
102
{ACAD_REACTORS
330
246
330
247
102
}
330
71
100
AcDbEntity
  8
0
  6
Continuous
 62
     2
100
AcDbLine
 10
90.42990375285686
 20
343.0875674109209
 30
0.0
 11
91.62269645502326
 21
343.0875674109209
 31
0.0
  0
LINE
  5
1B4
102
{ACAD_REACTORS
330
246
330
247
102
}
330
71
100
AcDbEntity
  8
0
  6
Continuous
 62
     2
100
AcDbLine
 10
90.42990375285686
 20
342.0187340775863
 30
0.0
 11
90.42990375285686
 21
343.0875674109209
 31
0.0
  0
LINE
  5
1B5
102
{ACAD_REACTORS
330
258
330
259
102
}
330
71
100
AcDbEntity
  8
0
  6
Continuous
 62
     2
100
AcDbLine
 10
96.44157897177786
 20
342.3895538054779
 30
0.0
 11
96.44157897177786
 21
343.0875674109209
 31
0.0
  0
LINE
  5
1B6
102
{ACAD_REACTORS
330
258
330
259
102
}
330
71
100
AcDbEntity
  8
0
  6
Continuous
 62
     2
100
AcDbLine
 10
93.29125924799686
 20
343.0875674109209
 30
0.0
 11
96.44157897177786
 21
343.0875674109209
 31
0.0
  0
LINE
  5
1B7
102
{ACAD_REACTORS
330
258
330
259
102
}
330
71
100
AcDbEntity
  8
0
  6
Continuous
 62
     2
100
AcDbLine
 10
93.29125924799686
 20
340.0337578871097
 30
0.0
 11
96.44157897177786
 21
340.0337578871097
 31
0.0
  0
LINE
  5
1B8
102
{ACAD_REACTORS
330
258
330
259
102
}
330
71
100
AcDbEntity
  8
0
  6
Continuous
 62
     2
100
AcDbLine
 10
96.44157897177786
 20
340.0337578871097
 30
0.0
 11
96.44157897177786
 21
340.7317714925522
 31
0.0
  0
LINE
  5
1B9
102
{ACAD_REACTORS
330
258
330
259
102
}
330
71
100
AcDbEntity
  8
0
  6
Continuous
 62
     2
100
AcDbLine
 10
96.44157897177786
 20
340.7317714925522
 30
0.0
 11
95.10565114535018
 21
340.7317714925522
 31
0.0
  0
LINE
  5
1BA
102
{ACAD_REACTORS
330
258
330
259
102
}
330
71
100
AcDbEntity
  8
0
  6
Continuous
 62
     2
100
AcDbLine
 10
95.10565114535018
 20
340.7317714925522
 30
0.0
 11
95.10565114535018
 21
341.2116558462939
 31
0.0
  0
LINE
  5
1BB
102
{ACAD_REACTORS
330
258
330
259
102
}
330
71
100
AcDbEntity
  8
0
  6
Continuous
 62
     2
100
AcDbLine
 10
95.10565114535018
 20
342.3895538054779
 30
0.0
 11
96.44157897177786
 21
342.3895538054779
 31
0.0
  0
LINE
  5
1BC
102
{ACAD_REACTORS
330
248
330
249
102
}
330
71
100
AcDbEntity
  8
0
  6
Continuous
 62
     2
100
AcDbLine
 10
92.62449139395866
 20
336.6745674109354
 30
0.0
 11
92.62449139395866
 21
337.98334292114
 31
0.0
  0
LINE
  5
1BD
102
{ACAD_REACTORS
330
248
330
249
102
}
330
71
100
AcDbEntity
  8
0
  6
Continuous
 62
     2
100
AcDbLine
 10
92.62449139395866
 20
337.98334292114
 30
0.0
 11
93.86499580421156
 21
336.6745674109354
 31
0.0
  0
LINE
  5
1BE
102
{ACAD_REACTORS
330
248
330
249
102
}
330
71
100
AcDbEntity
  8
0
  6
Continuous
 62
     2
100
AcDbLine
 10
95.05778850637796
 20
336.6745674109354
 30
0.0
 11
95.05778850637796
 21
339.7283769347465
 31
0.0
  0
LINE
  5
1BF
102
{ACAD_REACTORS
330
248
330
249
102
}
330
71
100
AcDbEntity
  8
0
  6
Continuous
 62
     2
100
AcDbLine
 10
95.05778850637796
 20
339.7283769347465
 30
0.0
 11
93.86499580421156
 21
339.7283769347465
 31
0.0
  0
LINE
  5
1C0
102
{ACAD_REACTORS
330
248
330
249
102
}
330
71
100
AcDbEntity
  8
0
  6
Continuous
 62
     2
100
AcDbLine
 10
93.86499580421156
 20
339.7283769347465
 30
0.0
 11
93.86499580421156
 21
338.4196014245414
 31
0.0
  0
LINE
  5
1C1
102
{ACAD_REACTORS
330
248
330
249
102
}
330
71
100
AcDbEntity
  8
0
  6
Continuous
 62
     2
100
AcDbLine
 10
93.86499580421156
 20
338.4196014245414
 30
0.0
 11
92.62449139395866
 21
339.7283769347465
 31
0.0
  0
LINE
  5
1C2
102
{ACAD_REACTORS
330
24A
330
24B
102
}
330
71
100
AcDbEntity
  8
0
  6
Continuous
 62
     2
100
AcDbLine
 10
97.87293021437728
 20
341.3425333973144
 30
0.0
 11
99.11343462463128
 21
340.0337578871097
 31
0.0
  0
LINE
  5
1C3
102
{ACAD_REACTORS
330
24A
330
24B
102
}
330
71
100
AcDbEntity
  8
0
  6
Continuous
 62
     2
100
AcDbLine
 10
99.11343462463128
 20
340.0337578871097
 30
0.0
 11
100.3062273267979
 21
340.0337578871097
 31
0.0
  0
LINE
  5
1C4
102
{ACAD_REACTORS
330
24A
330
24B
102
}
330
71
100
AcDbEntity
  8
0
  6
Continuous
 62
     2
100
AcDbLine
 10
100.3062273267979
 20
340.0337578871097
 30
0.0
 11
100.3062273267979
 21
343.0875674109209
 31
0.0
  0
LINE
  5
1C5
102
{ACAD_REACTORS
330
24A
330
24B
102
}
330
71
100
AcDbEntity
  8
0
  6
Continuous
 62
     2
100
AcDbLine
 10
100.3062273267979
 20
343.0875674109209
 30
0.0
 11
99.11343462463128
 21
343.0875674109209
 31
0.0
  0
LINE
  5
1C6
102
{ACAD_REACTORS
330
24A
330
24B
102
}
330
71
100
AcDbEntity
  8
0
  6
Continuous
 62
     2
100
AcDbLine
 10
99.11343462463128
 20
341.7787919007157
 30
0.0
 11
97.87293021437728
 21
343.0875674109209
 31
0.0
  0
LINE
  5
1C7
102
{ACAD_REACTORS
330
24A
330
24B
102
}
330
71
100
AcDbEntity
  8
0
  6
Continuous
 62
     2
100
AcDbLine
 10
96.68013751221076
 20
340.0337578871097
 30
0.0
 11
97.87293021437728
 21
340.0337578871097
 31
0.0
  0
LINE
  5
1C8
102
{ACAD_REACTORS
330
24C
330
24D
102
}
330
71
100
AcDbEntity
  8
0
  6
Continuous
 62
     2
100
AcDbLine
 10
95.20092363063816
 20
339.7283769347465
 30
0.0
 11
95.20092363063816
 21
338.9431116286229
 31
0.0
  0
LINE
  5
1C9
102
{ACAD_REACTORS
330
24C
330
24D
102
}
330
71
100
AcDbEntity
  8
0
  6
Continuous
 62
     2
100
AcDbLine
 10
96.01202266811276
 20
338.9431116286229
 30
0.0
 11
96.01202266811276
 21
336.6745674109354
 31
0.0
  0
LINE
  5
1CA
102
{ACAD_REACTORS
330
24C
330
24D
102
}
330
71
100
AcDbEntity
  8
0
  6
Continuous
 62
     2
100
AcDbLine
 10
96.01202266811276
 20
336.6745674109354
 30
0.0
 11
97.20481537027928
 21
336.6745674109354
 31
0.0
  0
LINE
  5
1CB
102
{ACAD_REACTORS
330
24E
330
24F
102
}
330
71
100
AcDbEntity
  8
0
  6
Continuous
 62
     2
100
AcDbLine
 10
100.1543418636988
 20
336.6745674109354
 30
0.0
 11
99.94286181022298
 21
337.2155279551532
 31
0.0
  0
LINE
  5
1CC
102
{ACAD_REACTORS
330
24E
330
24F
102
}
330
71
100
AcDbEntity
  8
0
  6
Continuous
 62
     2
100
AcDbLine
 10
99.99689322701238
 20
339.7283769347465
 30
0.0
 11
101.3948462739527
 21
336.6745674109354
 31
0.0
  0
LINE
  5
1CD
102
{ACAD_REACTORS
330
24E
330
24F
102
}
330
71
100
AcDbEntity
  8
0
  6
Continuous
 62
     2
100
AcDbLine
 10
98.75638881675968
 20
339.7283769347465
 30
0.0
 11
99.99689322701238
 21
339.7283769347465
 31
0.0
  0
LINE
  5
1CE
102
{ACAD_REACTORS
330
24E
330
24F
102
}
330
71
100
AcDbEntity
  8
0
  6
Continuous
 62
     2
100
AcDbLine
 10
97.35843576982037
 20
336.6745674109354
 30
0.0
 11
98.59894018007336
 21
336.6745674109354
 31
0.0
  0
LINE
  5
1CF
102
{ACAD_REACTORS
330
24E
330
24F
102
}
330
71
100
AcDbEntity
  8
0
  6
Continuous
 62
     2
100
AcDbLine
 10
99.07647578469417
 20
337.8960912204599
 30
0.0
 11
99.67680625907667
 21
337.8960912204599
 31
0.0
  0
LINE
  5
1D0
102
{ACAD_REACTORS
330
24E
330
24F
102
}
330
71
100
AcDbEntity
  8
0
  6
Continuous
 62
     2
100
AcDbLine
 10
99.67680625907667
 20
337.8960912204599
 30
0.0
 11
99.37664102188657
 21
338.6639061864465
 31
0.0
  0
LINE
  5
1D1
102
{ACAD_REACTORS
330
250
330
251
102
}
330
71
100
AcDbEntity
  8
0
  6
Continuous
 62
     2
100
AcDbLine
 10
101.7852902774847
 20
340.0337578871097
 30
0.0
 11
100.5447858672318
 21
340.0337578871097
 31
0.0
  0
LINE
  5
1D2
102
{ACAD_REACTORS
330
252
330
253
102
}
330
71
100
AcDbEntity
  8
0
  6
Continuous
 62
     2
100
AcDbLine
 10
103.3072937654498
 20
340.0337578871097
 30
0.0
 11
101.9045695477016
 21
340.0337578871097
 31
0.0
  0
LINE
  5
1D3
102
{ACAD_REACTORS
330
252
330
253
102
}
330
71
100
AcDbEntity
  8
0
  6
Continuous
 62
     2
100
AcDbLine
 10
103.3072937654498
 20
340.0337578871097
 30
0.0
 11
104.0038847035155
 21
340.8214896724034
 31
0.0
  0
LINE
  5
1D4
102
{ACAD_REACTORS
330
252
330
253
102
}
330
71
100
AcDbEntity
  8
0
  6
Continuous
 62
     2
100
AcDbLine
 10
104.6050522254083
 20
343.0875674109209
 30
0.0
 11
106.0077764431555
 21
343.0875674109209
 31
0.0
  0
LINE
  5
1D5
102
{ACAD_REACTORS
330
252
330
253
102
}
330
71
100
AcDbEntity
  8
0
  6
Continuous
 62
     2
100
AcDbLine
 10
101.9999929638744
 20
343.0875674109209
 30
0.0
 11
103.3025225946419
 21
341.6146168808847
 31
0.0
  0
LINE
  5
1D6
102
{ACAD_REACTORS
330
252
330
253
102
}
330
71
100
AcDbEntity
  8
0
  6
Continuous
 62
     2
100
AcDbLine
 10
101.9045695477016
 20
340.0337578871097
 30
0.0
 11
103.3025225946419
 21
341.6146168808847
 31
0.0
  0
LINE
  5
1D7
102
{ACAD_REACTORS
330
25C
330
25D
102
}
330
71
100
AcDbEntity
  8
0
  6
Continuous
 62
     2
100
AcDbLine
 10
103.7653261630815
 20
337.721587819099
 30
0.0
 11
103.7653261630815
 21
336.8490708122956
 31
0.0
  0
LINE
  5
1D8
102
{ACAD_REACTORS
330
25C
330
25D
102
}
330
71
100
AcDbEntity
  8
0
  6
Continuous
 62
     2
100
AcDbLine
 10
102.9956688201201
 20
338.9431116286229
 30
0.0
 11
104.0993081196882
 21
338.9431116286229
 31
0.0
  0
LINE
  5
1D9
102
{ACAD_REACTORS
330
25E
330
25F
102
}
330
71
100
AcDbEntity
  8
0
  6
Continuous
 62
     2
100
AcDbLine
 10
87.66262468382956
 20
337.7215878190995
 30
0.0
 11
87.66262468382956
 21
336.8490708122963
 31
0.0
  0
LINE
  5
1DA
102
{ACAD_REACTORS
330
25E
330
25F
102
}
330
71
100
AcDbEntity
  8
0
  6
Continuous
 62
     2
100
AcDbLine
 10
87.66262468382956
 20
338.6813565265824
 30
0.0
 11
87.66262468382956
 21
339.5538735333856
 31
0.0
  0
LINE
  5
1DB
330
71
100
AcDbEntity
  8
1
  6
Continuous
 62
     7
100
AcDbLine
 10
203.5000002688135
 20
337.8810674109191
 30
0.0
 11
110.3551957420621
 21
337.8810674109191
 31
0.0
  0
LINE
  5
1DC
330
71
100
AcDbEntity
  8
1
  6
Continuous
 62
     6
100
AcDbLine
 10
4.95519574206219
 20
329.3810674109191
 30
0.0
 11
-39.99999973118781
 21
329.3810674109191
 31
0.0
  0
LINE
  5
1DD
330
71
100
AcDbEntity
  8
1
  6
Continuous
 62
     7
100
AcDbLine
 10
194.5815919871347
 20
354.8810674109191
 30
0.0
 11
194.5815919871347
 21
346.3810674109191
 31
0.0
  0
LINE
  5
1DE
330
71
100
AcDbEntity
  8
1
  6
Continuous
 62
     7
100
AcDbLine
 10
168.0815919871351
 20
354.8810674109191
 30
0.0
 11
168.0815919871351
 21
346.3810674109191
 31
0.0
  0
LINE
  5
1DF
330
71
100
AcDbEntity
  8
1
  6
Continuous
 62
     7
100
AcDbLine
 10
110.3551957420621
 20
346.3810674109191
 30
0.0
 11
110.3551957420621
 21
354.8810674109191
 31
0.0
  0
LINE
  5
1E0
330
71
100
AcDbEntity
  8
1
  6
Continuous
 62
     7
100
AcDbLine
 10
73.95519574206216
 20
346.3810674109191
 30
0.0
 11
73.95519574206216
 21
354.8810674109191
 31
0.0
  0
LINE
  5
1E1
330
71
100
AcDbEntity
  8
1
  6
Continuous
 62
     6
100
AcDbLine
 10
110.3551957420621
 20
346.3810674109191
 30
0.0
 11
203.5000002688139
 21
346.3810674109191
 31
0.0
  0
LINE
  5
1E2
330
71
100
AcDbEntity
  8
1
  6
Continuous
 62
     7
100
AcDbLine
 10
138.2551957420622
 20
337.8810674109189
 30
0.0
 11
138.2551957420622
 21
346.3810674109191
 31
0.0
  0
LINE
  5
1E3
330
71
100
AcDbEntity
  8
1
  6
PHANTOM
 62
     2
100
AcDbLine
 10
89.44185062862476
 20
350.5060674109189
 30
0.0
 11
83.94185062862476
 21
350.5060674109189
 31
0.0
  0
LINE
  5
1E4
330
71
100
AcDbEntity
  8
1
  6
PHANTOM
 62
     2
100
AcDbLine
 10
86.69185062862476
 20
353.2560674109189
 30
0.0
 11
86.69185062862476
 21
347.7560674109189
 31
0.0
  0
LINE
  5
1E5
330
71
100
AcDbEntity
  8
1
  6
DOT_CENTER
 62
     2
100
AcDbLine
 10
77.94185062862476
 20
350.5060674109189
 30
0.0
 11
83.44185062862476
 21
350.5060674109189
 31
0.0
  0
ARC
  5
1E6
102
{ACAD_REACTORS
330
25E
330
25F
102
}
330
71
100
AcDbEntity
  8
0
  6
Continuous
 62
     2
100
AcDbCircle
 10
86.32669676671176
 20
334.8887912275848
 30
0.0
 40
4.852596863497986
100
AcDbArc
 50
74.0200087416471
 51
84.84185523037502
  0
ARC
  5
1E7
102
{ACAD_REACTORS
330
25E
330
25F
102
}
330
71
100
AcDbEntity
  8
0
  6
Continuous
 62
     2
100
AcDbCircle
 10
86.90273737546548
 20
338.0445515834691
 30
0.0
 40
0.9059297849853228
100
AcDbArc
 50
71.55192388185348
 51
113.372277888129
  0
ARC
  5
1E8
102
{ACAD_REACTORS
330
25E
330
25F
102
}
330
71
100
AcDbEntity
  8
0
  6
Continuous
 62
     2
100
AcDbCircle
 10
86.74629734276346
 20
337.9964007435021
 30
0.0
 40
0.5115800601948034
100
AcDbArc
 50
208.5214732576956
 51
246.6277221118223
  0
ARC
  5
1E9
102
{ACAD_REACTORS
330
25E
330
25F
102
}
330
71
100
AcDbEntity
  8
0
  6
Continuous
 62
     2
100
AcDbCircle
 10
86.90273737546548
 20
338.3583927622121
 30
0.0
 40
0.9059297849848149
100
AcDbArc
 50
246.6277221118682
 51
288.4480761181613
  0
ARC
  5
1EA
102
{ACAD_REACTORS
330
25E
330
25F
102
}
330
71
100
AcDbEntity
  8
0
  6
Continuous
 62
     2
100
AcDbCircle
 10
86.48456964180468
 20
339.6119385382493
 30
0.0
 40
2.227384008972656
100
AcDbArc
 50
288.4480761181335
 51
301.9309089499604
  0
ARC
  5
1EB
102
{ACAD_REACTORS
330
25A
330
25B
102
}
330
71
100
AcDbEntity
  8
0
  6
Continuous
 62
     2
100
AcDbCircle
 10
81.25949590919788
 20
340.3444405671634
 30
0.0
 40
0.9118481501444847
100
AcDbArc
 50
295.3740086781757
 51
64.62599132180748
  0
ARC
  5
1EC
102
{ACAD_REACTORS
330
25A
330
25B
102
}
330
71
100
AcDbEntity
  8
0
  6
Continuous
 62
     2
100
AcDbCircle
 10
81.78553860728576
 20
342.059117455638
 30
0.0
 40
0.3157169230759573
100
AcDbArc
 50
90.188967042546
 51
180.0
  0
ARC
  5
1ED
102
{ACAD_REACTORS
330
25C
330
25D
102
}
330
71
100
AcDbEntity
  8
0
  6
Continuous
 62
     2
100
AcDbCircle
 10
102.9956688201201
 20
337.9885886217968
 30
0.0
 40
0.9545230068260935
100
AcDbArc
 50
90.0
 51
109.3371432194312
  0
ARC
  5
1EE
102
{ACAD_REACTORS
330
25C
330
25D
102
}
330
71
100
AcDbEntity
  8
0
  6
Continuous
 62
     2
100
AcDbCircle
 10
103.2263560800978
 20
338.2014721728407
 30
0.0
 40
0.941059735334906
100
AcDbArc
 50
151.4785267423609
 51
208.5214732576695
  0
ARC
  5
1EF
102
{ACAD_REACTORS
330
25C
330
25D
102
}
330
71
100
AcDbEntity
  8
0
  6
Continuous
 62
     2
100
AcDbCircle
 10
103.0054388547195
 20
338.3583927622121
 30
0.0
 40
0.9059297849851757
100
AcDbArc
 50
246.6277221118154
 51
288.448076118084
  0
ARC
  5
1F0
102
{ACAD_REACTORS
330
25C
330
25D
102
}
330
71
100
AcDbEntity
  8
0
  6
Continuous
 62
     2
100
AcDbCircle
 10
102.5872711210576
 20
339.6119385382488
 30
0.0
 40
2.227384008972773
100
AcDbArc
 50
288.4480761181333
 51
301.930908949939
  0
ARC
  5
1F1
102
{ACAD_REACTORS
330
25C
330
25D
102
}
330
71
100
AcDbEntity
  8
0
  6
Continuous
 62
     2
100
AcDbCircle
 10
102.4293982459648
 20
341.5141531180971
 30
0.0
 40
4.852596863498824
100
AcDbArc
 50
275.1581447696362
 51
285.9799912583381
  0
ARC
  5
1F2
102
{ACAD_REACTORS
330
25C
330
25D
102
}
330
71
100
AcDbEntity
  8
0
  6
Continuous
 62
     2
100
AcDbCircle
 10
102.7182543407006
 20
338.3142625348755
 30
0.0
 40
1.639695123940421
100
AcDbArc
 50
195.0618917771015
 51
275.1581447696767
  0
ARC
  5
1F3
102
{ACAD_REACTORS
330
254
330
255
102
}
330
71
100
AcDbEntity
  8
0
  6
Continuous
 62
     2
100
AcDbCircle
 10
86.99004102900946
 20
342.0322017695872
 30
0.0
 40
1.055365641333651
100
AcDbArc
 50
270.0
 51
90.0
  0
ARC
  5
1F4
102
{ACAD_REACTORS
330
25A
330
25B
102
}
330
71
100
AcDbEntity
  8
0
  6
Continuous
 62
     2
100
AcDbCircle
 10
79.20998992075405
 20
337.702839889569
 30
0.0
 40
0.3157169230756836
100
AcDbArc
 50
180.0
 51
270.0
  0
ARC
  5
1F5
102
{ACAD_REACTORS
330
25A
330
25B
102
}
330
71
100
AcDbEntity
  8
0
  6
Continuous
 62
     2
100
AcDbCircle
 10
80.68582318176368
 20
342.0592949322861
 30
0.0
 40
0.315716923076593
100
AcDbArc
 50
0.0
 51
90.0
  0
ARC
  5
1F6
102
{ACAD_REACTORS
330
25A
330
25B
102
}
330
71
100
AcDbEntity
  8
0
  6
Continuous
 62
     2
100
AcDbCircle
 10
80.68582318176368
 20
341.4552703132256
 30
0.0
 40
0.3157169230761203
100
AcDbArc
 50
295.1944106485397
 51
0.0
  0
ARC
  5
1F7
102
{ACAD_REACTORS
330
25A
330
25B
102
}
330
71
100
AcDbEntity
  8
0
  6
Continuous
 62
     2
100
AcDbCircle
 10
80.68582318176368
 20
337.702839889569
 30
0.0
 40
0.3157169230767067
100
AcDbArc
 50
270.0
 51
0.0
  0
ARC
  5
1F8
102
{ACAD_REACTORS
330
25A
330
25B
102
}
330
71
100
AcDbEntity
  8
0
  6
Continuous
 62
     2
100
AcDbCircle
 10
78.61609524400757
 20
342.6633227955189
 30
0.0
 40
0.4242446153837705
100
AcDbArc
 50
90.0
 51
180.0
  0
ARC
  5
1F9
102
{ACAD_REACTORS
330
25A
330
25B
102
}
330
71
100
AcDbEntity
  8
0
  6
Continuous
 62
     2
100
AcDbCircle
 10
84.08940733472437
 20
342.6633227955189
 30
0.0
 40
0.4242446153838841
100
AcDbArc
 50
0.0
 51
90.0
  0
ARC
  5
1FA
102
{ACAD_REACTORS
330
25A
330
25B
102
}
330
71
100
AcDbEntity
  8
0
  6
Continuous
 62
     2
100
AcDbCircle
 10
84.08940733472437
 20
337.0988120263187
 30
0.0
 40
0.4242446153832589
100
AcDbArc
 50
270.0
 51
0.0
  0
ARC
  5
1FB
102
{ACAD_REACTORS
330
258
330
259
102
}
330
71
100
AcDbEntity
  8
0
  6
Continuous
 62
     2
100
AcDbCircle
 10
93.30779122181588
 20
341.5606626490149
 30
0.0
 40
0.7717997786796023
100
AcDbArc
 50
321.8795802028471
 51
38.12041979716621
  0
ARC
  5
1FC
102
{ACAD_REACTORS
330
258
330
259
102
}
330
71
100
AcDbEntity
  8
0
  6
Continuous
 62
     2
100
AcDbCircle
 10
93.50753125816206
 20
341.4039314708946
 30
0.0
 40
0.5179085730134722
100
AcDbArc
 50
218.120419797156
 51
321.8795802028517
  0
ARC
  5
1FD
102
{ACAD_REACTORS
330
256
330
257
102
}
330
71
100
AcDbEntity
  8
0
  6
Continuous
 62
     2
100
AcDbCircle
 10
89.82752366920187
 20
338.2014721728407
 30
0.0
 40
1.458034083651977
100
AcDbArc
 50
297.5481481757016
 51
62.45185182429947
  0
ARC
  5
1FE
102
{ACAD_REACTORS
330
256
330
257
102
}
330
71
100
AcDbEntity
  8
0
  6
Continuous
 62
     2
100
AcDbCircle
 10
89.26564388553527
 20
338.2014721728407
 30
0.0
 40
1.458034083651515
100
AcDbArc
 50
117.5481481756619
 51
242.451851824337
  0
ARC
  5
1FF
102
{ACAD_REACTORS
330
256
330
257
102
}
330
71
100
AcDbEntity
  8
0
  6
Continuous
 62
     2
100
AcDbCircle
 10
89.54658377736857
 20
337.6628971625379
 30
0.0
 40
2.065479772208593
100
AcDbArc
 50
62.45185182430674
 51
117.548148175666
  0
ARC
  5
200
102
{ACAD_REACTORS
330
256
330
257
102
}
330
71
100
AcDbEntity
  8
0
  6
Continuous
 62
     2
100
AcDbCircle
 10
89.54658377736857
 20
338.7400471831439
 30
0.0
 40
2.065479772208382
100
AcDbArc
 50
242.4518518243383
 51
297.5481481756889
  0
ARC
  5
201
102
{ACAD_REACTORS
330
258
330
259
102
}
330
71
100
AcDbEntity
  8
0
  6
Continuous
 62
     2
100
AcDbCircle
 10
93.70727129450836
 20
341.5606626490149
 30
0.0
 40
0.7717997786797426
100
AcDbArc
 50
141.8795802028338
 51
218.1204197971529
  0
ARC
  5
202
102
{ACAD_REACTORS
330
258
330
259
102
}
330
71
100
AcDbEntity
  8
0
  6
Continuous
 62
     2
100
AcDbCircle
 10
93.50753125816206
 20
341.7173938271354
 30
0.0
 40
0.5179085730135616
100
AcDbArc
 50
38.12041979714829
 51
141.879580202844
  0
ARC
  5
203
102
{ACAD_REACTORS
330
25A
330
25B
102
}
330
71
100
AcDbEntity
  8
0
  6
Continuous
 62
     2
100
AcDbCircle
 10
78.61609524400757
 20
337.0988120263187
 30
0.0
 40
0.4242446153828041
100
AcDbArc
 50
180.0
 51
270.0
  0
ARC
  5
204
102
{ACAD_REACTORS
330
25A
330
25B
102
}
330
71
100
AcDbEntity
  8
0
  6
Continuous
 62
     2
100
AcDbCircle
 10
80.68582318176368
 20
339.2336108211006
 30
0.0
 40
0.315716923076593
100
AcDbArc
 50
0.0
 51
64.80558935146027
  0
ARC
  5
205
102
{ACAD_REACTORS
330
25A
330
25B
102
}
330
71
100
AcDbEntity
  8
0
  6
Continuous
 62
     2
100
AcDbCircle
 10
81.20840762933867
 20
340.3444405671634
 30
0.0
 40
0.9118975235575889
100
AcDbArc
 50
115.194410648529
 51
244.8055893514878
  0
ARC
  5
206
102
{ACAD_REACTORS
330
25A
330
25B
102
}
330
71
100
AcDbEntity
  8
0
  6
Continuous
 62
     2
100
AcDbCircle
 10
79.20998992075405
 20
342.0592949322861
 30
0.0
 40
0.3157169230760815
100
AcDbArc
 50
90.0
 51
180.0
  0
ARC
  5
207
102
{ACAD_REACTORS
330
254
330
255
102
}
330
71
100
AcDbEntity
  8
0
  6
Continuous
 62
     2
100
AcDbCircle
 10
86.54856850277108
 20
342.0715977408097
 30
0.0
 40
0.3528638246710898
100
AcDbArc
 50
270.0
 51
90.0
  0
ARC
  5
208
102
{ACAD_REACTORS
330
258
330
259
102
}
330
71
100
AcDbEntity
  8
0
  6
Continuous
 62
     2
100
AcDbCircle
 10
93.29125924799686
 20
341.5606626490149
 30
0.0
 40
1.526904761905996
100
AcDbArc
 50
90.0
 51
270.0
  0
ARC
  5
209
102
{ACAD_REACTORS
330
25C
330
25D
102
}
330
71
100
AcDbEntity
  8
0
  6
Continuous
 62
     2
100
AcDbCircle
 10
102.7182543407006
 20
338.0886818108057
 30
0.0
 40
1.639695123940157
100
AcDbArc
 50
90.0
 51
164.9381082228928
  0
ARC
  5
20A
102
{ACAD_REACTORS
330
25C
330
25D
102
}
330
71
100
AcDbEntity
  8
0
  6
Continuous
 62
     2
100
AcDbCircle
 10
102.299126497239
 20
338.2014721728407
 30
0.0
 40
1.205656168392989
100
AcDbArc
 50
164.9381082229026
 51
195.0618917770948
  0
ARC
  5
20B
102
{ACAD_REACTORS
330
25C
330
25D
102
}
330
71
100
AcDbEntity
  8
0
  6
Continuous
 62
     2
100
AcDbCircle
 10
102.8489988220164
 20
337.9964007435021
 30
0.0
 40
0.5115800601959548
100
AcDbArc
 50
208.5214732576762
 51
246.6277221118399
  0
ARC
  5
20C
102
{ACAD_REACTORS
330
25C
330
25D
102
}
330
71
100
AcDbEntity
  8
0
  6
Continuous
 62
     2
100
AcDbCircle
 10
102.8489988220164
 20
338.4065436021797
 30
0.0
 40
0.5115800601944096
100
AcDbArc
 50
109.3371432194838
 51
151.4785267424189
  0
ARC
  5
20D
102
{ACAD_REACTORS
330
25A
330
25B
102
}
330
71
100
AcDbEntity
  8
0
  6
Continuous
 62
     2
100
AcDbCircle
 10
81.78553860728576
 20
338.6534475604999
 30
0.0
 40
0.315716923076792
100
AcDbArc
 50
180.0
 51
269.8110329574542
  0
ARC
  5
20E
102
{ACAD_REACTORS
330
25A
330
25B
102
}
330
71
100
AcDbEntity
  8
0
  6
Continuous
 62
     2
100
AcDbCircle
 10
81.79115474259578
 20
340.3562825080688
 30
0.0
 40
2.018561131933209
100
AcDbArc
 50
269.8110329575858
 51
90.18896704241416
  0
ARC
  5
20F
102
{ACAD_REACTORS
330
25A
330
25B
102
}
330
71
100
AcDbEntity
  8
0
  6
Continuous
 62
     2
100
AcDbCircle
 10
81.78553860728576
 20
341.4535821671312
 30
0.0
 40
0.315716923076792
100
AcDbArc
 50
180.0
 51
244.6259913216437
  0
ARC
  5
210
102
{ACAD_REACTORS
330
25A
330
25B
102
}
330
71
100
AcDbEntity
  8
0
  6
Continuous
 62
     2
100
AcDbCircle
 10
81.78553860728576
 20
339.2352989671949
 30
0.0
 40
0.3157169230765842
100
AcDbArc
 50
115.3740086783474
 51
180.0
  0
ARC
  5
211
102
{ACAD_REACTORS
330
25E
330
25F
102
}
330
71
100
AcDbEntity
  8
0
  6
Continuous
 62
     2
100
AcDbCircle
 10
86.61555286144767
 20
338.0886818108057
 30
0.0
 40
1.639695123940563
100
AcDbArc
 50
84.84185523036254
 51
164.9381082228846
  0
ARC
  5
212
102
{ACAD_REACTORS
330
25E
330
25F
102
}
330
71
100
AcDbEntity
  8
0
  6
Continuous
 62
     2
100
AcDbCircle
 10
86.19642501798486
 20
338.2014721728407
 30
0.0
 40
1.205656168390944
100
AcDbArc
 50
164.9381082228765
 51
195.0618917770948
  0
ARC
  5
213
102
{ACAD_REACTORS
330
25E
330
25F
102
}
330
71
100
AcDbEntity
  8
0
  6
Continuous
 62
     2
100
AcDbCircle
 10
86.61555286144767
 20
338.3142625348755
 30
0.0
 40
1.639695123939395
100
AcDbArc
 50
195.0618917770906
 51
275.1581447696391
  0
ARC
  5
214
102
{ACAD_REACTORS
330
25E
330
25F
102
}
330
71
100
AcDbEntity
  8
0
  6
Continuous
 62
     2
100
AcDbCircle
 10
86.32669676671176
 20
341.5141531180971
 30
0.0
 40
4.852596863498279
100
AcDbArc
 50
275.1581447696248
 51
285.9799912583529
  0
ARC
  5
215
102
{ACAD_REACTORS
330
25E
330
25F
102
}
330
71
100
AcDbEntity
  8
0
  6
Continuous
 62
     2
100
AcDbCircle
 10
87.12365460084376
 20
338.2014721728407
 30
0.0
 40
0.9410597353332545
100
AcDbArc
 50
151.4785267422669
 51
208.5214732577118
  0
ARC
  5
216
102
{ACAD_REACTORS
330
25E
330
25F
102
}
330
71
100
AcDbEntity
  8
0
  6
Continuous
 62
     2
100
AcDbCircle
 10
86.74629734276346
 20
338.4065436021797
 30
0.0
 40
0.511580060194904
100
AcDbArc
 50
113.3722778881979
 51
151.4785267423044
  0
ARC
  5
217
102
{ACAD_REACTORS
330
25E
330
25F
102
}
330
71
100
AcDbEntity
  8
0
  6
Continuous
 62
     2
100
AcDbCircle
 10
86.48456964180468
 20
336.7910058074325
 30
0.0
 40
2.227384008973501
100
AcDbArc
 50
58.06909105004111
 51
71.55192388186745
  0
ARC
  5
218
102
{ACAD_REACTORS
330
256
330
257
102
}
330
71
100
AcDbEntity
  8
0
  6
Continuous
 62
     2
100
AcDbCircle
 10
89.54658377736857
 20
338.3582033509612
 30
0.0
 40
0.5179085730132998
100
AcDbArc
 50
38.12041979714704
 51
141.8795802028588
  0
ARC
  5
219
102
{ACAD_REACTORS
330
256
330
257
102
}
330
71
100
AcDbEntity
  8
0
  6
Continuous
 62
     2
100
AcDbCircle
 10
89.74632381371467
 20
338.2014721728407
 30
0.0
 40
0.7717997786794808
100
AcDbArc
 50
141.8795802028346
 51
218.1204197971753
  0
ARC
  5
21A
102
{ACAD_REACTORS
330
256
330
257
102
}
330
71
100
AcDbEntity
  8
0
  6
Continuous
 62
     2
100
AcDbCircle
 10
89.54658377736857
 20
338.0447409947207
 30
0.0
 40
0.5179085730138231
100
AcDbArc
 50
218.1204197972055
 51
321.8795802027886
  0
ARC
  5
21B
102
{ACAD_REACTORS
330
256
330
257
102
}
330
71
100
AcDbEntity
  8
0
  6
Continuous
 62
     2
100
AcDbCircle
 10
89.34684374102216
 20
338.2014721728407
 30
0.0
 40
0.7717997786797649
100
AcDbArc
 50
321.8795802028351
 51
38.12041979715494
  0
CIRCLE
  5
21C
330
71
100
AcDbEntity
  8
1
  6
Continuous
 62
     2
100
AcDbCircle
 10
86.69185062862476
 20
350.5060674109189
 30
0.0
 40
2.5
  0
CIRCLE
  5
21D
330
71
100
AcDbEntity
  8
1
  6
Continuous
 62
     2
100
AcDbCircle
 10
86.69185062862476
 20
350.5060674109189
 30
0.0
 40
1.249999999999915
  0
CIRCLE
  5
21E
102
{ACAD_REACTORS
330
25A
330
25B
102
}
330
71
100
AcDbEntity
  8
0
  6
Continuous
 62
     2
100
AcDbCircle
 10
81.23568089452507
 20
340.3444405671634
 30
0.0
 40
0.4709789327785074
  0
MTEXT
  5
21F
330
71
100
AcDbEntity
  8
1
 62
     3
100
AcDbMText
 10
-83.49493194511604
 20
516.1723755662179
 30
0.0
 40
1.8
 41
0.0
 71
     7
 72
     1
  3
Weitergabe sowie Vervielf\U+00e4ltigung dieses Dokuments, Verwertung und \PMitteilung seines Inhalts sind verboten, soweit nicht ausdr\U+00fccklich gestattet. \PZuwiderhandlungen verpflichten zu Schadenersatz. Alle Rechte f\U+00fcr den Fall\Pder Pat
  1
ent-, Gebrauchsmuster- oder Designeintragung vorbehalten.
  7
CONVERTER_11
 73
     1
 44
0.99639855942377
  0
MTEXT
  5
220
330
71
100
AcDbEntity
  8
1
 62
     3
100
AcDbMText
 10
99.35817789367206
 20
516.1723755662179
 30
0.0
 40
1.8
 41
0.0
 71
     7
 72
     1
  3
Transfer or duplication of this document as well as the utilisation or\Pcommunication of its content are not permitted unless express consent\Pis granted. Violations give rise to claims for damages. All rights reserved\Pin case of patent, utility mo
  1
del or design patent registrations.
  7
CONVERTER_11
 73
     1
 44
0.99639855942377
  0
TEXT
  5
221
330
71
100
AcDbEntity
  8
1
 62
     2
100
AcDbText
 10
93.15519574206198
 20
330.6220501959274
 30
0.0
 40
1.8
  1
of
 41
0.9
  7
CONVERTER_11
100
AcDbText
  0
TEXT
  5
222
330
71
100
AcDbEntity
  8
1
 62
     2
100
AcDbText
 10
74.95519574206216
 20
330.6220501959274
 30
0.0
 40
1.8
  1
page
 41
0.9
  7
CONVERTER_11
100
AcDbText
  0
TEXT
  5
223
330
71
100
AcDbEntity
  8
1
 62
     2
100
AcDbText
 10
83.60146071240416
 20
330.5818187571171
 30
0.0
 40
1.8
  1
1
 41
0.9
  7
CONVERTER_11
100
AcDbText
  0
TEXT
  5
224
330
71
100
AcDbEntity
  8
1
 62
     2
100
AcDbText
 10
98.39050455187567
 20
330.6310674109189
 30
0.0
 40
1.8
  1
1
 41
0.9
  7
CONVERTER_11
100
AcDbText
  0
MTEXT
  5
226
330
71
100
AcDbEntity
  8
1
 62
     7
100
AcDbMText
 10
156.9275980054377
 20
332.6310674109193
 30
0.0
 40
3.0
 41
0.0
 71
     5
 72
     1
  1
D-QTC 1,5-QUATTRO
  7
CONVERTER_12
 73
     1
 44
1.20048019207683
  0
MTEXT
  5
227
330
71
100
AcDbEntity
  8
1
 62
     2
100
AcDbMText
 10
111.3551957420621
 20
336.8810674109191
 30
0.0
 40
1.8
 41
0.0
 71
     1
 72
     1
  1
description
  7
CONVERTER_11
 73
     1
 44
1.20048019207683
  0
MTEXT
  5
228
330
71
100
AcDbEntity
  8
1
 62
     3
100
AcDbMText
 10
100.1551957420621
 20
350.5060674109191
 30
0.0
 40
2.5
 41
0.0
 71
     5
 72
     1
  1
DIN A4
  7
CONVERTER_11
 73
     1
 44
1.20048019207683
  0
MTEXT
  5
229
330
71
100
AcDbEntity
  8
1
 62
     7
100
AcDbMText
 10
-85.9999997311869
 20
351.8810674109191
 30
0.0
 40
3.5
 41
0.0
 71
     5
 72
     1
  1
D
  7
CONVERTER_11
 73
     1
 44
1.20048019207683
  0
MTEXT
  5
22A
330
71
100
AcDbEntity
  8
1
 62
     7
100
AcDbMText
 10
-85.9999997311869
 20
404.3810674109191
 30
0.0
 40
3.5
 41
0.0
 71
     5
 72
     1
  1
C
  7
CONVERTER_11
 73
     1
 44
1.20048019207683
  0
MTEXT
  5
22B
330
71
100
AcDbEntity
  8
1
 62
     7
100
AcDbMText
 10
-85.9999997311869
 20
454.3810674109191
 30
0.0
 40
3.5
 41
0.0
 71
     5
 72
     1
  1
B
  7
CONVERTER_11
 73
     1
 44
1.20048019207683
  0
MTEXT
  5
22C
330
71
100
AcDbEntity
  8
1
 62
     7
100
AcDbMText
 10
-85.9999997311869
 20
506.8810674109191
 30
0.0
 40
3.5
 41
0.0
 71
     5
 72
     1
  1
A
  7
CONVERTER_11
 73
     1
 44
1.20048019207683
  0
MTEXT
  5
22D
330
71
100
AcDbEntity
  8
1
 62
     7
100
AcDbMText
 10
184.2500002688114
 20
326.8810674109189
 30
0.0
 40
3.5
 41
0.0
 71
     5
 72
     1
  1
6
  7
CONVERTER_11
 73
     1
 44
1.20048019207683
  0
MTEXT
  5
22E
330
71
100
AcDbEntity
  8
1
 62
     7
100
AcDbMText
 10
135.0000002688122
 20
326.8810674109189
 30
0.0
 40
3.5
 41
0.0
 71
     5
 72
     1
  1
5
  7
CONVERTER_11
 73
     1
 44
1.20048019207683
  0
MTEXT
  5
22F
330
71
100
AcDbEntity
  8
1
 62
     7
100
AcDbMText
 10
85.00000026881207
 20
326.8810674109189
 30
0.0
 40
3.5
 41
0.0
 71
     5
 72
     1
  1
4
  7
CONVERTER_11
 73
     1
 44
1.20048019207683
  0
MTEXT
  5
230
330
71
100
AcDbEntity
  8
1
 62
     7
100
AcDbMText
 10
35.00000026881219
 20
326.8810674109189
 30
0.0
 40
3.5
 41
0.0
 71
     5
 72
     1
  1
3
  7
CONVERTER_11
 73
     1
 44
1.20048019207683
  0
MTEXT
  5
231
330
71
100
AcDbEntity
  8
1
 62
     7
100
AcDbMText
 10
-14.99999973118781
 20
326.8810674109189
 30
0.0
 40
3.5
 41
0.0
 71
     5
 72
     1
  1
2
  7
CONVERTER_11
 73
     1
 44
1.20048019207683
  0
MTEXT
  5
232
330
71
100
AcDbEntity
  8
1
 62
     7
100
AcDbMText
 10
-64.24999973118742
 20
326.8810674109189
 30
0.0
 40
3.5
 41
0.0
 71
     5
 72
     1
  1
1
  7
CONVERTER_11
 73
     1
 44
1.20048019207683
  0
MTEXT
  5
233
330
71
100
AcDbEntity
  8
1
 62
     7
100
AcDbMText
 10
206.0000002688112
 20
351.8810674109191
 30
0.0
 40
3.5
 41
0.0
 71
     5
 72
     1
  1
D
  7
CONVERTER_11
 73
     1
 44
1.20048019207683
  0
MTEXT
  5
234
330
71
100
AcDbEntity
  8
1
 62
     7
100
AcDbMText
 10
206.0000002688112
 20
454.381067410921
 30
0.0
 40
3.5
 41
0.0
 71
     5
 72
     1
  1
B
  7
CONVERTER_11
 73
     1
 44
1.20048019207683
  0
MTEXT
  5
235
330
71
100
AcDbEntity
  8
1
 62
     7
100
AcDbMText
 10
206.0000002688112
 20
506.8810674109191
 30
0.0
 40
3.5
 41
0.0
 71
     5
 72
     1
  1
A
  7
CONVERTER_11
 73
     1
 44
1.20048019207683
  0
MTEXT
  5
236
330
71
100
AcDbEntity
  8
1
 62
     7
100
AcDbMText
 10
206.0000002688112
 20
404.381067410921
 30
0.0
 40
3.5
 41
0.0
 71
     5
 72
     1
  1
C
  7
CONVERTER_11
 73
     1
 44
1.20048019207683
  0
MTEXT
  5
237
330
71
100
AcDbEntity
  8
1
 62
     2
100
AcDbMText
 10
39.51718101701465
 20
342.1310674109189
 30
0.0
 40
2.0
 41
0.0
 71
     5
 72
     1
  1
General Information\P- Simplified representation\P- Document excluded from change process\P- Linear dimensions [mm]
  7
CONVERTER_11
 73
     1
 44
1.20048019207683
  0
TEXT
  5
238
330
71
100
AcDbEntity
  8
1
 62
     7
100
AcDbText
 10
111.8551957420619
 20
339.181067410919
 30
0.0
 40
2.5
  1
3205174
 41
0.81
  7
CONVERTER_12
100
AcDbText
  0
MTEXT
  5
239
330
71
100
AcDbEntity
  8
1
 62
     2
100
AcDbMText
 10
111.4551957420622
 20
345.3810674109191
 30
0.0
 40
1.8
 41
0.0
 71
     1
 72
     1
  1
ident.-No.
  7
CONVERTER_11
 73
     1
 44
1.20048019207683
  0
MTEXT
  5
23A
330
71
100
AcDbEntity
  8
1
 62
     2
100
AcDbMText
 10
195.6815919871349
 20
353.8810674109191
 30
0.0
 40
1.8
 41
0.0
 71
     1
 72
     1
  1
scale
  7
CONVERTER_11
 73
     1
 44
1.20048019207683
  0
MTEXT
  5
23C
330
71
100
AcDbEntity
  8
1
 62
     3
100
AcDbMText
 10
199.0407961279745
 20
347.6810674109191
 30
0.0
 40
2.5
 41
0.0
 71
     8
 72
     1
  1
1:1
  7
CONVERTER_13
 73
     1
 44
1.32052821128451
  0
TEXT
  5
23D
330
71
100
AcDbEntity
  8
1
 62
     7
100
AcDbText
 10
111.4551957420622
 20
347.681067410919
 30
0.0
 40
2.5
  1
00317982
 41
0.81
  7
CONVERTER_12
100
AcDbText
  0
MTEXT
  5
23F
330
71
100
AcDbEntity
  8
1
 62
     2
100
AcDbMText
 10
111.4551957420622
 20
353.8810674109191
 30
0.0
 40
1.8
 41
0.0
 71
     1
 72
     1
  1
document-No. / RI
  7
CONVERTER_14
 73
     1
 44
1.32052821128451
  0
TEXT
  5
240
330
71
100
AcDbEntity
  8
1
 62
     3
100
AcDbText
 10
139.2551957420622
 20
339.181067410919
 30
0.0
 40
2.5
  1
TECDOC 2D_Productdrawing
 41
0.81
  7
CONVERTER_12
100
AcDbText
  0
MTEXT
  5
241
330
71
100
AcDbEntity
  8
1
 62
     2
100
AcDbMText
 10
139.2551957420622
 20
345.3810674109189
 30
0.0
 40
1.8
 41
0.0
 71
     1
 72
     1
  1
document-type
  7
CONVERTER_11
 73
     1
 44
1.20048019207683
  0
MTEXT
  5
242
330
71
100
AcDbEntity
  8
1
 62
     2
100
AcDbMText
 10
169.0815919871351
 20
353.8810674109189
 30
0.0
 40
1.8
 41
0.0
 71
     1
 72
     1
  1
date
  7
CONVERTER_11
 73
     1
 44
1.32052821128451
  0
TEXT
  5
243
330
71
100
AcDbEntity
  8
1
 62
     3
100
AcDbText
 10
169.0815919871351
 20
347.681067410919
 30
0.0
 40
2.5
  1
16.12.2017
 41
0.81
  7
CONVERTER_12
100
AcDbText
  0
TEXT
  5
244
330
71
100
AcDbEntity
  8
1
 62
     7
100
AcDbText
 10
131.485107961118
 20
347.681067410919
 30
0.0
 40
2.5
  1
01
 41
0.81
  7
CONVERTER_12
100
AcDbText
  0
TEXT
  5
245
330
71
100
AcDbEntity
  8
1
 62
     7
100
AcDbText
 10
129.328743464076
 20
347.681067410919
 30
0.0
 40
2.5
  1
/
 41
0.9
  7
CONVERTER_11
100
AcDbText
  0
HATCH
  5
246
330
71
100
AcDbEntity
  8
1
  6
Continuous
 62
     2
100
AcDbHatch
 10
0.0
 20
0.0
 30
0.0
210
0.0
220
0.0
230
1.0
  2
_USER
 70
     0
 71
     1
 91
        1
 92
        1
 93
       12
 72
     1
 10
91.62269645502326
 20
340.0337578871097
 11
90.42990375285686
 21
340.0337578871097
 72
     1
 10
90.42990375285686
 20
340.0337578871097
 11
90.42990375285686
 21
341.1680299959535
 72
     1
 10
90.42990375285686
 20
341.1680299959535
 11
89.38024617494938
 21
341.1680299959535
 72
     1
 10
89.38024617494938
 20
341.1680299959535
 11
89.38024617494938
 21
340.0337578871097
 72
     1
 10
89.38024617494938
 20
340.0337578871097
 11
88.18745347278278
 21
340.0337578871097
 72
     1
 10
88.18745347278278
 20
340.0337578871097
 11
88.18745347278278
 21
343.0875674109209
 72
     1
 10
88.18745347278278
 20
343.0875674109209
 11
89.38024617494938
 21
343.0875674109209
 72
     1
 10
89.38024617494938
 20
343.0875674109209
 11
89.38024617494938
 21
342.0187340775863
 72
     1
 10
89.38024617494938
 20
342.0187340775863
 11
90.42990375285686
 21
342.0187340775863
 72
     1
 10
90.42990375285686
 20
342.0187340775863
 11
90.42990375285686
 21
343.0875674109209
 72
     1
 10
90.42990375285686
 20
343.0875674109209
 11
91.62269645502326
 21
343.0875674109209
 72
     1
 10
91.62269645502326
 20
343.0875674109209
 11
91.62269645502326
 21
340.0337578871097
 97
       12
330
1B3
330
1B4
330
19E
330
19D
330
19C
330
1B0
330
19B
330
1B1
330
1B2
330
19A
330
199
330
198
 75
     1
 76
     0
 52
45.0
 41
0.1
 77
     0
 78
     1
 53
45.0
 43
0.0
 44
0.0
 45
-0.0707106781186548
 46
0.0707106781186548
 79
     0
 98
        1
 10
0.0
 20
0.0
  0
HATCH
  5
247
330
71
100
AcDbEntity
  8
1
  6
Continuous
 62
     2
100
AcDbHatch
 10
0.0
 20
0.0
 30
0.0
210
0.0
220
0.0
230
1.0
  2
_USER
 70
     0
 71
     1
 91
        1
 92
        1
 93
       12
 72
     1
 10
91.62269645502326
 20
340.0337578871097
 11
90.42990375285686
 21
340.0337578871097
 72
     1
 10
90.42990375285686
 20
340.0337578871097
 11
90.42990375285686
 21
341.1680299959535
 72
     1
 10
90.42990375285686
 20
341.1680299959535
 11
89.38024617494938
 21
341.1680299959535
 72
     1
 10
89.38024617494938
 20
341.1680299959535
 11
89.38024617494938
 21
340.0337578871097
 72
     1
 10
89.38024617494938
 20
340.0337578871097
 11
88.18745347278278
 21
340.0337578871097
 72
     1
 10
88.18745347278278
 20
340.0337578871097
 11
88.18745347278278
 21
343.0875674109209
 72
     1
 10
88.18745347278278
 20
343.0875674109209
 11
89.38024617494938
 21
343.0875674109209
 72
     1
 10
89.38024617494938
 20
343.0875674109209
 11
89.38024617494938
 21
342.0187340775863
 72
     1
 10
89.38024617494938
 20
342.0187340775863
 11
90.42990375285686
 21
342.0187340775863
 72
     1
 10
90.42990375285686
 20
342.0187340775863
 11
90.42990375285686
 21
343.0875674109209
 72
     1
 10
90.42990375285686
 20
343.0875674109209
 11
91.62269645502326
 21
343.0875674109209
 72
     1
 10
91.62269645502326
 20
343.0875674109209
 11
91.62269645502326
 21
340.0337578871097
 97
       12
330
1B3
330
1B4
330
19E
330
19D
330
19C
330
1B0
330
19B
330
1B1
330
1B2
330
19A
330
199
330
198
 75
     1
 76
     0
 52
45.0
 41
0.1
 77
     0
 78
     1
 53
45.0
 43
0.0
 44
0.0
 45
-0.0707106781186548
 46
0.0707106781186548
 79
     0
 98
        1
 10
0.0
 20
0.0
  0
HATCH
  5
248
330
71
100
AcDbEntity
  8
1
  6
Continuous
 62
     2
100
AcDbHatch
 10
0.0
 20
0.0
 30
0.0
210
0.0
220
0.0
230
1.0
  2
_USER
 70
     0
 71
     1
 91
        1
 92
        1
 93
       10
 72
     1
 10
93.86499580421156
 20
338.4196014245414
 11
92.62449139395866
 21
339.7283769347465
 72
     1
 10
92.62449139395866
 20
339.7283769347465
 11
91.43169869179107
 21
339.7283769347465
 72
     1
 10
91.43169869179107
 20
339.7283769347465
 11
91.43169869179107
 21
336.6745674109354
 72
     1
 10
91.43169869179107
 20
336.6745674109354
 11
92.62449139395866
 21
336.6745674109354
 72
     1
 10
92.62449139395866
 20
336.6745674109354
 11
92.62449139395866
 21
337.98334292114
 72
     1
 10
92.62449139395866
 20
337.98334292114
 11
93.86499580421156
 21
336.6745674109354
 72
     1
 10
93.86499580421156
 20
336.6745674109354
 11
95.05778850637796
 21
336.6745674109354
 72
     1
 10
95.05778850637796
 20
336.6745674109354
 11
95.05778850637796
 21
339.7283769347465
 72
     1
 10
95.05778850637796
 20
339.7283769347465
 11
93.86499580421156
 21
339.7283769347465
 72
     1
 10
93.86499580421156
 20
339.7283769347465
 11
93.86499580421156
 21
338.4196014245414
 97
       10
330
1C1
330
191
330
190
330
193
330
1BC
330
1BD
330
192
330
1BE
330
1BF
330
1C0
 75
     1
 76
     0
 52
45.0
 41
0.1
 77
     0
 78
     1
 53
45.0
 43
0.0
 44
0.0
 45
-0.0707106781186548
 46
0.0707106781186548
 79
     0
 98
        1
 10
0.0
 20
0.0
  0
HATCH
  5
249
330
71
100
AcDbEntity
  8
1
  6
Continuous
 62
     2
100
AcDbHatch
 10
0.0
 20
0.0
 30
0.0
210
0.0
220
0.0
230
1.0
  2
_USER
 70
     0
 71
     1
 91
        1
 92
        1
 93
       10
 72
     1
 10
93.86499580421156
 20
338.4196014245414
 11
92.62449139395866
 21
339.7283769347465
 72
     1
 10
92.62449139395866
 20
339.7283769347465
 11
91.43169869179107
 21
339.7283769347465
 72
     1
 10
91.43169869179107
 20
339.7283769347465
 11
91.43169869179107
 21
336.6745674109354
 72
     1
 10
91.43169869179107
 20
336.6745674109354
 11
92.62449139395866
 21
336.6745674109354
 72
     1
 10
92.62449139395866
 20
336.6745674109354
 11
92.62449139395866
 21
337.98334292114
 72
     1
 10
92.62449139395866
 20
337.98334292114
 11
93.86499580421156
 21
336.6745674109354
 72
     1
 10
93.86499580421156
 20
336.6745674109354
 11
95.05778850637796
 21
336.6745674109354
 72
     1
 10
95.05778850637796
 20
336.6745674109354
 11
95.05778850637796
 21
339.7283769347465
 72
     1
 10
95.05778850637796
 20
339.7283769347465
 11
93.86499580421156
 21
339.7283769347465
 72
     1
 10
93.86499580421156
 20
339.7283769347465
 11
93.86499580421156
 21
338.4196014245414
 97
       10
330
1C1
330
191
330
190
330
193
330
1BC
330
1BD
330
192
330
1BE
330
1BF
330
1C0
 75
     1
 76
     0
 52
45.0
 41
0.1
 77
     0
 78
     1
 53
45.0
 43
0.0
 44
0.0
 45
-0.0707106781186548
 46
0.0707106781186548
 79
     0
 98
        1
 10
0.0
 20
0.0
  0
HATCH
  5
24A
330
71
100
AcDbEntity
  8
1
  6
Continuous
 62
     2
100
AcDbHatch
 10
0.0
 20
0.0
 30
0.0
210
0.0
220
0.0
230
1.0
  2
_USER
 70
     0
 71
     1
 91
        1
 92
        1
 93
       10
 72
     1
 10
99.11343462463128
 20
341.7787919007157
 11
97.87293021437728
 21
343.0875674109209
 72
     1
 10
97.87293021437728
 20
343.0875674109209
 11
96.68013751221076
 21
343.0875674109209
 72
     1
 10
96.68013751221076
 20
343.0875674109209
 11
96.68013751221076
 21
340.0337578871097
 72
     1
 10
96.68013751221076
 20
340.0337578871097
 11
97.87293021437728
 21
340.0337578871097
 72
     1
 10
97.87293021437728
 20
340.0337578871097
 11
97.87293021437728
 21
341.3425333973144
 72
     1
 10
97.87293021437728
 20
341.3425333973144
 11
99.11343462463128
 21
340.0337578871097
 72
     1
 10
99.11343462463128
 20
340.0337578871097
 11
100.3062273267979
 21
340.0337578871097
 72
     1
 10
100.3062273267979
 20
340.0337578871097
 11
100.3062273267979
 21
343.0875674109209
 72
     1
 10
100.3062273267979
 20
343.0875674109209
 11
99.11343462463128
 21
343.0875674109209
 72
     1
 10
99.11343462463128
 20
343.0875674109209
 11
99.11343462463128
 21
341.7787919007157
 97
       10
330
1C6
330
18E
330
18D
330
1C7
330
18C
330
1C2
330
1C3
330
1C4
330
1C5
330
18F
 75
     1
 76
     0
 52
45.0
 41
0.1
 77
     0
 78
     1
 53
45.0
 43
0.0
 44
0.0
 45
-0.0707106781186548
 46
0.0707106781186548
 79
     0
 98
        1
 10
0.0
 20
0.0
  0
HATCH
  5
24B
330
71
100
AcDbEntity
  8
1
  6
Continuous
 62
     2
100
AcDbHatch
 10
0.0
 20
0.0
 30
0.0
210
0.0
220
0.0
230
1.0
  2
_USER
 70
     0
 71
     1
 91
        1
 92
        1
 93
       10
 72
     1
 10
99.11343462463128
 20
341.7787919007157
 11
97.87293021437728
 21
343.0875674109209
 72
     1
 10
97.87293021437728
 20
343.0875674109209
 11
96.68013751221076
 21
343.0875674109209
 72
     1
 10
96.68013751221076
 20
343.0875674109209
 11
96.68013751221076
 21
340.0337578871097
 72
     1
 10
96.68013751221076
 20
340.0337578871097
 11
97.87293021437728
 21
340.0337578871097
 72
     1
 10
97.87293021437728
 20
340.0337578871097
 11
97.87293021437728
 21
341.3425333973144
 72
     1
 10
97.87293021437728
 20
341.3425333973144
 11
99.11343462463128
 21
340.0337578871097
 72
     1
 10
99.11343462463128
 20
340.0337578871097
 11
100.3062273267979
 21
340.0337578871097
 72
     1
 10
100.3062273267979
 20
340.0337578871097
 11
100.3062273267979
 21
343.0875674109209
 72
     1
 10
100.3062273267979
 20
343.0875674109209
 11
99.11343462463128
 21
343.0875674109209
 72
     1
 10
99.11343462463128
 20
343.0875674109209
 11
99.11343462463128
 21
341.7787919007157
 97
       10
330
1C6
330
18E
330
18D
330
1C7
330
18C
330
1C2
330
1C3
330
1C4
330
1C5
330
18F
 75
     1
 76
     0
 52
45.0
 41
0.1
 77
     0
 78
     1
 53
45.0
 43
0.0
 44
0.0
 45
-0.0707106781186548
 46
0.0707106781186548
 79
     0
 98
        1
 10
0.0
 20
0.0
  0
HATCH
  5
24C
330
71
100
AcDbEntity
  8
1
  6
Continuous
 62
     2
100
AcDbHatch
 10
0.0
 20
0.0
 30
0.0
210
0.0
220
0.0
230
1.0
  2
_USER
 70
     0
 71
     1
 91
        1
 92
        1
 93
        8
 72
     1
 10
98.01591440775178
 20
339.7283769347465
 11
95.20092363063816
 21
339.7283769347465
 72
     1
 10
95.20092363063816
 20
339.7283769347465
 11
95.20092363063816
 21
338.9431116286229
 72
     1
 10
95.20092363063816
 20
338.9431116286229
 11
96.01202266811276
 21
338.9431116286229
 72
     1
 10
96.01202266811276
 20
338.9431116286229
 11
96.01202266811276
 21
336.6745674109354
 72
     1
 10
96.01202266811276
 20
336.6745674109354
 11
97.20481537027928
 21
336.6745674109354
 72
     1
 10
97.20481537027928
 20
336.6745674109354
 11
97.20481537027928
 21
338.9431116286229
 72
     1
 10
97.20481537027928
 20
338.9431116286229
 11
98.01591440775178
 21
338.9431116286229
 72
     1
 10
98.01591440775178
 20
338.9431116286229
 11
98.01591440775178
 21
339.7283769347465
 97
        8
330
188
330
1C8
330
187
330
1C9
330
1CA
330
18B
330
18A
330
189
 75
     1
 76
     0
 52
45.0
 41
0.1
 77
     0
 78
     1
 53
45.0
 43
0.0
 44
0.0
 45
-0.0707106781186548
 46
0.0707106781186548
 79
     0
 98
        1
 10
0.0
 20
0.0
  0
HATCH
  5
24D
330
71
100
AcDbEntity
  8
1
  6
Continuous
 62
     2
100
AcDbHatch
 10
0.0
 20
0.0
 30
0.0
210
0.0
220
0.0
230
1.0
  2
_USER
 70
     0
 71
     1
 91
        1
 92
        1
 93
        8
 72
     1
 10
98.01591440775178
 20
339.7283769347465
 11
95.20092363063816
 21
339.7283769347465
 72
     1
 10
95.20092363063816
 20
339.7283769347465
 11
95.20092363063816
 21
338.9431116286229
 72
     1
 10
95.20092363063816
 20
338.9431116286229
 11
96.01202266811276
 21
338.9431116286229
 72
     1
 10
96.01202266811276
 20
338.9431116286229
 11
96.01202266811276
 21
336.6745674109354
 72
     1
 10
96.01202266811276
 20
336.6745674109354
 11
97.20481537027928
 21
336.6745674109354
 72
     1
 10
97.20481537027928
 20
336.6745674109354
 11
97.20481537027928
 21
338.9431116286229
 72
     1
 10
97.20481537027928
 20
338.9431116286229
 11
98.01591440775178
 21
338.9431116286229
 72
     1
 10
98.01591440775178
 20
338.9431116286229
 11
98.01591440775178
 21
339.7283769347465
 97
        8
330
188
330
1C8
330
187
330
1C9
330
1CA
330
18B
330
18A
330
189
 75
     1
 76
     0
 52
45.0
 41
0.1
 77
     0
 78
     1
 53
45.0
 43
0.0
 44
0.0
 45
-0.0707106781186548
 46
0.0707106781186548
 79
     0
 98
        1
 10
0.0
 20
0.0
  0
HATCH
  5
24E
330
71
100
AcDbEntity
  8
1
  6
Continuous
 62
     2
100
AcDbHatch
 10
0.0
 20
0.0
 30
0.0
210
0.0
220
0.0
230
1.0
  2
_USER
 70
     0
 71
     1
 91
        2
 92
        1
 93
        8
 72
     1
 10
100.1543418636988
 20
336.6745674109354
 11
99.94286181022298
 21
337.2155279551532
 72
     1
 10
99.94286181022298
 20
337.2155279551532
 11
98.81042023354917
 21
337.2155279551532
 72
     1
 10
98.81042023354917
 20
337.2155279551532
 11
98.59894018007336
 21
336.6745674109354
 72
     1
 10
98.59894018007336
 20
336.6745674109354
 11
97.35843576982037
 21
336.6745674109354
 72
     1
 10
97.35843576982037
 20
336.6745674109354
 11
98.75638881675968
 21
339.7283769347465
 72
     1
 10
98.75638881675968
 20
339.7283769347465
 11
99.99689322701238
 21
339.7283769347465
 72
     1
 10
99.99689322701238
 20
339.7283769347465
 11
101.3948462739527
 21
336.6745674109354
 72
     1
 10
101.3948462739527
 20
336.6745674109354
 11
100.1543418636988
 21
336.6745674109354
 97
        8
330
1CC
330
1CD
330
184
330
1CE
330
183
330
186
330
1CB
330
185
 92
       16
 93
        3
 72
     1
 10
99.07647578469417
 20
337.8960912204599
 11
99.37664102188657
 21
338.6639061864465
 72
     1
 10
99.37664102188657
 20
338.6639061864465
 11
99.67680625907667
 21
337.8960912204599
 72
     1
 10
99.67680625907667
 20
337.8960912204599
 11
99.07647578469417
 21
337.8960912204599
 97
        3
330
182
330
1D0
330
1CF
 75
     1
 76
     0
 52
45.0
 41
0.1
 77
     0
 78
     1
 53
45.0
 43
0.0
 44
0.0
 45
-0.0707106781186548
 46
0.0707106781186548
 79
     0
 98
        1
 10
0.0
 20
0.0
  0
HATCH
  5
24F
330
71
100
AcDbEntity
  8
1
  6
Continuous
 62
     2
100
AcDbHatch
 10
0.0
 20
0.0
 30
0.0
210
0.0
220
0.0
230
1.0
  2
_USER
 70
     0
 71
     1
 91
        2
 92
        1
 93
        8
 72
     1
 10
100.1543418636988
 20
336.6745674109354
 11
99.94286181022298
 21
337.2155279551532
 72
     1
 10
99.94286181022298
 20
337.2155279551532
 11
98.81042023354917
 21
337.2155279551532
 72
     1
 10
98.81042023354917
 20
337.2155279551532
 11
98.59894018007336
 21
336.6745674109354
 72
     1
 10
98.59894018007336
 20
336.6745674109354
 11
97.35843576982037
 21
336.6745674109354
 72
     1
 10
97.35843576982037
 20
336.6745674109354
 11
98.75638881675968
 21
339.7283769347465
 72
     1
 10
98.75638881675968
 20
339.7283769347465
 11
99.99689322701238
 21
339.7283769347465
 72
     1
 10
99.99689322701238
 20
339.7283769347465
 11
101.3948462739527
 21
336.6745674109354
 72
     1
 10
101.3948462739527
 20
336.6745674109354
 11
100.1543418636988
 21
336.6745674109354
 97
        8
330
1CC
330
1CD
330
184
330
1CE
330
183
330
186
330
1CB
330
185
 92
       16
 93
        3
 72
     1
 10
99.07647578469417
 20
337.8960912204599
 11
99.37664102188657
 21
338.6639061864465
 72
     1
 10
99.37664102188657
 20
338.6639061864465
 11
99.67680625907667
 21
337.8960912204599
 72
     1
 10
99.67680625907667
 20
337.8960912204599
 11
99.07647578469417
 21
337.8960912204599
 97
        3
330
182
330
1D0
330
1CF
 75
     1
 76
     0
 52
45.0
 41
0.1
 77
     0
 78
     1
 53
45.0
 43
0.0
 44
0.0
 45
-0.0707106781186548
 46
0.0707106781186548
 79
     0
 98
        1
 10
0.0
 20
0.0
  0
HATCH
  5
250
330
71
100
AcDbEntity
  8
1
  6
Continuous
 62
     2
100
AcDbHatch
 10
0.0
 20
0.0
 30
0.0
210
0.0
220
0.0
230
1.0
  2
_USER
 70
     0
 71
     1
 91
        1
 92
        1
 93
        4
 72
     1
 10
101.7852902774847
 20
340.0337578871097
 11
100.5447858672318
 21
340.0337578871097
 72
     1
 10
100.5447858672318
 20
340.0337578871097
 11
100.5447858672318
 21
343.0875674109209
 72
     1
 10
100.5447858672318
 20
343.0875674109209
 11
101.7852902774847
 21
343.0875674109209
 72
     1
 10
101.7852902774847
 20
343.0875674109209
 11
101.7852902774847
 21
340.0337578871097
 97
        4
330
17F
330
181
330
1D1
330
180
 75
     1
 76
     0
 52
45.0
 41
0.1
 77
     0
 78
     1
 53
45.0
 43
0.0
 44
0.0
 45
-0.0707106781186548
 46
0.0707106781186548
 79
     0
 98
        1
 10
0.0
 20
0.0
  0
HATCH
  5
251
330
71
100
AcDbEntity
  8
1
  6
Continuous
 62
     2
100
AcDbHatch
 10
0.0
 20
0.0
 30
0.0
210
0.0
220
0.0
230
1.0
  2
_USER
 70
     0
 71
     1
 91
        1
 92
        1
 93
        4
 72
     1
 10
101.7852902774847
 20
340.0337578871097
 11
100.5447858672318
 21
340.0337578871097
 72
     1
 10
100.5447858672318
 20
340.0337578871097
 11
100.5447858672318
 21
343.0875674109209
 72
     1
 10
100.5447858672318
 20
343.0875674109209
 11
101.7852902774847
 21
343.0875674109209
 72
     1
 10
101.7852902774847
 20
343.0875674109209
 11
101.7852902774847
 21
340.0337578871097
 97
        4
330
17F
330
181
330
1D1
330
180
 75
     1
 76
     0
 52
45.0
 41
0.1
 77
     0
 78
     1
 53
45.0
 43
0.0
 44
0.0
 45
-0.0707106781186548
 46
0.0707106781186548
 79
     0
 98
        1
 10
0.0
 20
0.0
  0
HATCH
  5
252
330
71
100
AcDbEntity
  8
1
  6
Continuous
 62
     2
100
AcDbHatch
 10
0.0
 20
0.0
 30
0.0
210
0.0
220
0.0
230
1.0
  2
_USER
 70
     0
 71
     1
 91
        1
 92
        1
 93
       12
 72
     1
 10
106.0077764431555
 20
343.0875674109209
 11
104.705246812389
 21
341.6146168808847
 72
     1
 10
104.705246812389
 20
341.6146168808847
 11
106.1031998593293
 21
340.0337578871097
 72
     1
 10
106.1031998593293
 20
340.0337578871097
 11
104.700475641581
 21
340.0337578871097
 72
     1
 10
104.700475641581
 20
340.0337578871097
 11
104.0038847035155
 21
340.8214896724034
 72
     1
 10
104.0038847035155
 20
340.8214896724034
 11
103.3072937654498
 21
340.0337578871097
 72
     1
 10
103.3072937654498
 20
340.0337578871097
 11
101.9045695477016
 21
340.0337578871097
 72
     1
 10
101.9045695477016
 20
340.0337578871097
 11
103.3025225946419
 21
341.6146168808847
 72
     1
 10
103.3025225946419
 20
341.6146168808847
 11
101.9999929638744
 21
343.0875674109209
 72
     1
 10
101.9999929638744
 20
343.0875674109209
 11
103.4027171816237
 21
343.0875674109209
 72
     1
 10
103.4027171816237
 20
343.0875674109209
 11
104.0038847035155
 21
342.4077440893653
 72
     1
 10
104.0038847035155
 20
342.4077440893653
 11
104.6050522254083
 21
343.0875674109209
 72
     1
 10
104.6050522254083
 20
343.0875674109209
 11
106.0077764431555
 21
343.0875674109209
 97
       12
330
17A
330
179
330
178
330
1D5
330
1D6
330
1D2
330
1D3
330
17E
330
17D
330
17C
330
17B
330
1D4
 75
     1
 76
     0
 52
45.0
 41
0.1
 77
     0
 78
     1
 53
45.0
 43
0.0
 44
0.0
 45
-0.0707106781186548
 46
0.0707106781186548
 79
     0
 98
        1
 10
0.0
 20
0.0
  0
HATCH
  5
253
330
71
100
AcDbEntity
  8
1
  6
Continuous
 62
     2
100
AcDbHatch
 10
0.0
 20
0.0
 30
0.0
210
0.0
220
0.0
230
1.0
  2
_USER
 70
     0
 71
     1
 91
        1
 92
        1
 93
       12
 72
     1
 10
106.0077764431555
 20
343.0875674109209
 11
104.705246812389
 21
341.6146168808847
 72
     1
 10
104.705246812389
 20
341.6146168808847
 11
106.1031998593293
 21
340.0337578871097
 72
     1
 10
106.1031998593293
 20
340.0337578871097
 11
104.700475641581
 21
340.0337578871097
 72
     1
 10
104.700475641581
 20
340.0337578871097
 11
104.0038847035155
 21
340.8214896724034
 72
     1
 10
104.0038847035155
 20
340.8214896724034
 11
103.3072937654498
 21
340.0337578871097
 72
     1
 10
103.3072937654498
 20
340.0337578871097
 11
101.9045695477016
 21
340.0337578871097
 72
     1
 10
101.9045695477016
 20
340.0337578871097
 11
103.3025225946419
 21
341.6146168808847
 72
     1
 10
103.3025225946419
 20
341.6146168808847
 11
101.9999929638744
 21
343.0875674109209
 72
     1
 10
101.9999929638744
 20
343.0875674109209
 11
103.4027171816237
 21
343.0875674109209
 72
     1
 10
103.4027171816237
 20
343.0875674109209
 11
104.0038847035155
 21
342.4077440893653
 72
     1
 10
104.0038847035155
 20
342.4077440893653
 11
104.6050522254083
 21
343.0875674109209
 72
     1
 10
104.6050522254083
 20
343.0875674109209
 11
106.0077764431555
 21
343.0875674109209
 97
       12
330
17A
330
179
330
178
330
1D5
330
1D6
330
1D2
330
1D3
330
17E
330
17D
330
17C
330
17B
330
1D4
 75
     1
 76
     0
 52
45.0
 41
0.1
 77
     0
 78
     1
 53
45.0
 43
0.0
 44
0.0
 45
-0.0707106781186548
 46
0.0707106781186548
 79
     0
 98
        1
 10
0.0
 20
0.0
  0
HATCH
  5
254
330
71
100
AcDbEntity
  8
1
  6
Continuous
 62
     2
100
AcDbHatch
 10
0.0
 20
0.0
 30
0.0
210
0.0
220
0.0
230
1.0
  2
_USER
 70
     0
 71
     1
 91
        2
 92
        1
 93
        6
 72
     1
 10
86.99004102900946
 20
340.9768361282535
 11
86.23127344122918
 21
340.9768361282535
 72
     1
 10
86.23127344122918
 20
340.9768361282535
 11
86.23127344122918
 21
340.0337578871097
 72
     1
 10
86.23127344122918
 20
340.0337578871097
 11
84.99076903097506
 21
340.0337578871097
 72
     1
 10
84.99076903097506
 20
340.0337578871097
 11
84.99076903097506
 21
343.0875674109209
 72
     1
 10
84.99076903097506
 20
343.0875674109209
 11
86.99004102900946
 21
343.0875674109209
 72
     2
 10
86.99004102900946
 20
342.0322017695872
 40
1.055365641333651
 50
270.0
 51
450.0
 73
     0
 97
        6
330
1A2
330
1A1
330
1AE
330
1AD
330
1A3
330
1F3
 92
       16
 93
        4
 72
     2
 10
86.54856850277108
 20
342.0715977408097
 40
0.3528638246710898
 50
270.0
 51
450.0
 73
     1
 72
     1
 10
86.54856850277108
 20
342.4244615654808
 11
86.23127344122918
 21
342.4244615654808
 72
     1
 10
86.23127344122918
 20
342.4244615654808
 11
86.23127344122918
 21
341.7187339161386
 72
     1
 10
86.23127344122918
 20
341.7187339161386
 11
86.54856850277108
 21
341.7187339161386
 97
        4
330
207
330
19F
330
1AF
330
1A0
 75
     1
 76
     0
 52
45.0
 41
0.1
 77
     0
 78
     1
 53
45.0
 43
0.0
 44
0.0
 45
-0.0707106781186548
 46
0.0707106781186548
 79
     0
 98
        1
 10
0.0
 20
0.0
  0
HATCH
  5
255
330
71
100
AcDbEntity
  8
1
  6
Continuous
 62
     2
100
AcDbHatch
 10
0.0
 20
0.0
 30
0.0
210
0.0
220
0.0
230
1.0
  2
_USER
 70
     0
 71
     1
 91
        2
 92
        1
 93
        6
 72
     1
 10
86.99004102900946
 20
340.9768361282535
 11
86.23127344122918
 21
340.9768361282535
 72
     1
 10
86.23127344122918
 20
340.9768361282535
 11
86.23127344122918
 21
340.0337578871097
 72
     1
 10
86.23127344122918
 20
340.0337578871097
 11
84.99076903097506
 21
340.0337578871097
 72
     1
 10
84.99076903097506
 20
340.0337578871097
 11
84.99076903097506
 21
343.0875674109209
 72
     1
 10
84.99076903097506
 20
343.0875674109209
 11
86.99004102900946
 21
343.0875674109209
 72
     2
 10
86.99004102900946
 20
342.0322017695872
 40
1.055365641333651
 50
270.0
 51
450.0
 73
     0
 97
        6
330
1A2
330
1A1
330
1AE
330
1AD
330
1A3
330
1F3
 92
       16
 93
        4
 72
     2
 10
86.54856850277108
 20
342.0715977408097
 40
0.3528638246710898
 50
270.0
 51
450.0
 73
     1
 72
     1
 10
86.54856850277108
 20
342.4244615654808
 11
86.23127344122918
 21
342.4244615654808
 72
     1
 10
86.23127344122918
 20
342.4244615654808
 11
86.23127344122918
 21
341.7187339161386
 72
     1
 10
86.23127344122918
 20
341.7187339161386
 11
86.54856850277108
 21
341.7187339161386
 97
        4
330
207
330
19F
330
1AF
330
1A0
 75
     1
 76
     0
 52
45.0
 41
0.1
 77
     0
 78
     1
 53
45.0
 43
0.0
 44
0.0
 45
-0.0707106781186548
 46
0.0707106781186548
 79
     0
 98
        1
 10
0.0
 20
0.0
  0
HATCH
  5
256
330
71
100
AcDbEntity
  8
1
  6
Continuous
 62
     2
100
AcDbHatch
 10
0.0
 20
0.0
 30
0.0
210
0.0
220
0.0
230
1.0
  2
_USER
 70
     0
 71
     1
 91
        2
 92
        1
 93
        4
 72
     2
 10
89.54658377736857
 20
337.6628971625379
 40
2.065479772208593
 50
62.45185182430674
 51
117.548148175666
 73
     1
 72
     2
 10
89.26564388553527
 20
338.2014721728407
 40
1.458034083651515
 50
117.5481481756619
 51
242.451851824337
 73
     1
 72
     2
 10
89.54658377736857
 20
338.7400471831439
 40
2.065479772208382
 50
242.4518518243383
 51
297.5481481756889
 73
     1
 72
     2
 10
89.82752366920187
 20
338.2014721728407
 40
1.458034083651977
 50
297.5481481757016
 51
422.4518518242994
 73
     1
 97
        4
330
1FF
330
1FE
330
200
330
1FD
 92
       16
 93
        4
 72
     2
 10
89.34684374102216
 20
338.2014721728407
 40
0.7717997786797649
 50
321.8795802028351
 51
398.120419797155
 73
     1
 72
     2
 10
89.54658377736857
 20
338.3582033509612
 40
0.5179085730132998
 50
38.12041979714704
 51
141.8795802028588
 73
     1
 72
     2
 10
89.74632381371467
 20
338.2014721728407
 40
0.7717997786794808
 50
141.8795802028346
 51
218.1204197971753
 73
     1
 72
     2
 10
89.54658377736857
 20
338.0447409947207
 40
0.5179085730138231
 50
218.1204197972055
 51
321.8795802027886
 73
     1
 97
        4
330
21B
330
218
330
219
330
21A
 75
     1
 76
     0
 52
45.0
 41
0.1
 77
     0
 78
     1
 53
45.0
 43
0.0
 44
0.0
 45
-0.0707106781186548
 46
0.0707106781186548
 79
     0
 98
        1
 10
0.0
 20
0.0
  0
HATCH
  5
257
330
71
100
AcDbEntity
  8
1
  6
Continuous
 62
     2
100
AcDbHatch
 10
0.0
 20
0.0
 30
0.0
210
0.0
220
0.0
230
1.0
  2
_USER
 70
     0
 71
     1
 91
        2
 92
        1
 93
        4
 72
     2
 10
89.54658377736857
 20
337.6628971625379
 40
2.065479772208593
 50
62.45185182430674
 51
117.548148175666
 73
     1
 72
     2
 10
89.26564388553527
 20
338.2014721728407
 40
1.458034083651515
 50
117.5481481756619
 51
242.451851824337
 73
     1
 72
     2
 10
89.54658377736857
 20
338.7400471831439
 40
2.065479772208382
 50
242.4518518243383
 51
297.5481481756889
 73
     1
 72
     2
 10
89.82752366920187
 20
338.2014721728407
 40
1.458034083651977
 50
297.5481481757016
 51
422.4518518242994
 73
     1
 97
        4
330
1FF
330
1FE
330
200
330
1FD
 92
       16
 93
        4
 72
     2
 10
89.34684374102216
 20
338.2014721728407
 40
0.7717997786797649
 50
321.8795802028351
 51
398.120419797155
 73
     1
 72
     2
 10
89.54658377736857
 20
338.3582033509612
 40
0.5179085730132998
 50
38.12041979714704
 51
141.8795802028588
 73
     1
 72
     2
 10
89.74632381371467
 20
338.2014721728407
 40
0.7717997786794808
 50
141.8795802028346
 51
218.1204197971753
 73
     1
 72
     2
 10
89.54658377736857
 20
338.0447409947207
 40
0.5179085730138231
 50
218.1204197972055
 51
321.8795802027886
 73
     1
 97
        4
330
21B
330
218
330
219
330
21A
 75
     1
 76
     0
 52
45.0
 41
0.1
 77
     0
 78
     1
 53
45.0
 43
0.0
 44
0.0
 45
-0.0707106781186548
 46
0.0707106781186548
 79
     0
 98
        1
 10
0.0
 20
0.0
  0
HATCH
  5
258
330
71
100
AcDbEntity
  8
1
  6
Continuous
 62
     2
100
AcDbHatch
 10
0.0
 20
0.0
 30
0.0
210
0.0
220
0.0
230
1.0
  2
_USER
 70
     0
 71
     1
 91
        2
 92
        1
 93
       12
 72
     1
 10
96.44157897177786
 20
342.3895538054779
 11
95.10565114535018
 21
342.3895538054779
 72
     1
 10
95.10565114535018
 20
342.3895538054779
 11
95.10565114535018
 21
341.9096694517361
 72
     1
 10
95.10565114535018
 20
341.9096694517361
 11
96.44157897177786
 21
341.9096694517361
 72
     1
 10
96.44157897177786
 20
341.9096694517361
 11
96.44157897177786
 21
341.2116558462939
 72
     1
 10
96.44157897177786
 20
341.2116558462939
 11
95.10565114535018
 21
341.2116558462939
 72
     1
 10
95.10565114535018
 20
341.2116558462939
 11
95.10565114535018
 21
340.7317714925522
 72
     1
 10
95.10565114535018
 20
340.7317714925522
 11
96.44157897177786
 21
340.7317714925522
 72
     1
 10
96.44157897177786
 20
340.7317714925522
 11
96.44157897177786
 21
340.0337578871097
 72
     1
 10
96.44157897177786
 20
340.0337578871097
 11
93.29125924799686
 21
340.0337578871097
 72
     2
 10
93.29125924799686
 20
341.5606626490149
 40
1.526904761905996
 50
90.0
 51
270.0
 73
     0
 72
     1
 10
93.29125924799686
 20
343.0875674109209
 11
96.44157897177786
 21
343.0875674109209
 72
     1
 10
96.44157897177786
 20
343.0875674109209
 11
96.44157897177786
 21
342.3895538054779
 97
       12
330
1B6
330
208
330
1B7
330
1B8
330
1B9
330
1BA
330
197
330
196
330
195
330
194
330
1BB
330
1B5
 92
       16
 93
        4
 72
     2
 10
93.50753125816206
 20
341.7173938271354
 40
0.5179085730135616
 50
38.12041979714829
 51
141.879580202844
 73
     1
 72
     2
 10
93.70727129450836
 20
341.5606626490149
 40
0.7717997786797426
 50
141.8795802028338
 51
218.1204197971529
 73
     1
 72
     2
 10
93.50753125816206
 20
341.4039314708946
 40
0.5179085730134722
 50
218.120419797156
 51
321.8795802028517
 73
     1
 72
     2
 10
93.30779122181588
 20
341.5606626490149
 40
0.7717997786796023
 50
321.8795802028471
 51
398.1204197971662
 73
     1
 97
        4
330
202
330
201
330
1FC
330
1FB
 75
     1
 76
     0
 52
45.0
 41
0.1
 77
     0
 78
     1
 53
45.0
 43
0.0
 44
0.0
 45
-0.0707106781186548
 46
0.0707106781186548
 79
     0
 98
        1
 10
0.0
 20
0.0
  0
HATCH
  5
259
330
71
100
AcDbEntity
  8
1
  6
Continuous
 62
     2
100
AcDbHatch
 10
0.0
 20
0.0
 30
0.0
210
0.0
220
0.0
230
1.0
  2
_USER
 70
     0
 71
     1
 91
        2
 92
        1
 93
       12
 72
     1
 10
96.44157897177786
 20
342.3895538054779
 11
95.10565114535018
 21
342.3895538054779
 72
     1
 10
95.10565114535018
 20
342.3895538054779
 11
95.10565114535018
 21
341.9096694517361
 72
     1
 10
95.10565114535018
 20
341.9096694517361
 11
96.44157897177786
 21
341.9096694517361
 72
     1
 10
96.44157897177786
 20
341.9096694517361
 11
96.44157897177786
 21
341.2116558462939
 72
     1
 10
96.44157897177786
 20
341.2116558462939
 11
95.10565114535018
 21
341.2116558462939
 72
     1
 10
95.10565114535018
 20
341.2116558462939
 11
95.10565114535018
 21
340.7317714925522
 72
     1
 10
95.10565114535018
 20
340.7317714925522
 11
96.44157897177786
 21
340.7317714925522
 72
     1
 10
96.44157897177786
 20
340.7317714925522
 11
96.44157897177786
 21
340.0337578871097
 72
     1
 10
96.44157897177786
 20
340.0337578871097
 11
93.29125924799686
 21
340.0337578871097
 72
     2
 10
93.29125924799686
 20
341.5606626490149
 40
1.526904761905996
 50
90.0
 51
270.0
 73
     0
 72
     1
 10
93.29125924799686
 20
343.0875674109209
 11
96.44157897177786
 21
343.0875674109209
 72
     1
 10
96.44157897177786
 20
343.0875674109209
 11
96.44157897177786
 21
342.3895538054779
 97
       12
330
1B6
330
208
330
1B7
330
1B8
330
1B9
330
1BA
330
197
330
196
330
195
330
194
330
1BB
330
1B5
 92
       16
 93
        4
 72
     2
 10
93.50753125816206
 20
341.7173938271354
 40
0.5179085730135616
 50
38.12041979714829
 51
141.879580202844
 73
     1
 72
     2
 10
93.70727129450836
 20
341.5606626490149
 40
0.7717997786797426
 50
141.8795802028338
 51
218.1204197971529
 73
     1
 72
     2
 10
93.50753125816206
 20
341.4039314708946
 40
0.5179085730134722
 50
218.120419797156
 51
321.8795802028517
 73
     1
 72
     2
 10
93.30779122181588
 20
341.5606626490149
 40
0.7717997786796023
 50
321.8795802028471
 51
398.1204197971662
 73
     1
 97
        4
330
202
330
201
330
1FC
330
1FB
 75
     1
 76
     0
 52
45.0
 41
0.1
 77
     0
 78
     1
 53
45.0
 43
0.0
 44
0.0
 45
-0.0707106781186548
 46
0.0707106781186548
 79
     0
 98
        1
 10
0.0
 20
0.0
  0
HATCH
  5
25A
330
71
100
AcDbEntity
  8
1
  6
Continuous
 62
     2
100
AcDbHatch
 10
0.0
 20
0.0
 30
0.0
210
0.0
220
0.0
230
1.0
  2
_USER
 70
     0
 71
     1
 91
        4
 92
        1
 93
        8
 72
     1
 10
84.51365195010825
 20
342.6633227955189
 11
84.51365195010825
 21
337.0988120263187
 72
     2
 10
84.08940733472437
 20
337.0988120263187
 40
0.4242446153832589
 50
0.0
 51
90.0
 73
     0
 72
     1
 10
84.08940733472437
 20
336.6745674109354
 11
78.61609524400757
 21
336.6745674109354
 72
     2
 10
78.61609524400757
 20
337.0988120263187
 40
0.4242446153828041
 50
90.0
 51
180.0
 73
     0
 72
     1
 10
78.19185062862476
 20
337.0988120263187
 11
78.19185062862476
 21
342.6633227955189
 72
     2
 10
78.61609524400757
 20
342.6633227955189
 40
0.4242446153837705
 50
180.0
 51
270.0
 73
     0
 72
     1
 10
78.61609524400757
 20
343.0875674109027
 11
84.08940733472437
 21
343.0875674109027
 72
     2
 10
84.08940733472437
 20
342.6633227955189
 40
0.4242446153838841
 50
270.0
 51
360.0
 73
     0
 97
        8
330
1AA
330
1F8
330
1AB
330
203
330
1A8
330
1FA
330
1A9
330
1F9
 92
       16
 93
        1
 72
     2
 10
81.23568089452507
 20
340.3444405671634
 40
0.4709789327785074
 50
0.0
 51
360.0
 73
     1
 97
        1
330
21E
 92
       16
 93
        8
 72
     2
 10
81.78553860728576
 20
339.2352989671949
 40
0.3157169230765842
 50
115.3740086783474
 51
180.0
 73
     1
 72
     1
 10
81.46982168420897
 20
339.2352989671949
 11
81.46982168420897
 21
338.6534475604999
 72
     2
 10
81.78553860728576
 20
338.6534475604999
 40
0.315716923076792
 50
180.0
 51
269.8110329574542
 73
     1
 72
     2
 10
81.79115474259578
 20
340.3562825080688
 40
2.018561131933209
 50
269.8110329575858
 51
450.1889670424142
 73
     1
 72
     2
 10
81.78553860728576
 20
342.059117455638
 40
0.3157169230759573
 50
90.188967042546
 51
180.0
 73
     1
 72
     1
 10
81.46982168420897
 20
342.059117455638
 11
81.46982168420897
 21
341.4535821671312
 72
     2
 10
81.78553860728576
 20
341.4535821671312
 40
0.315716923076792
 50
180.0
 51
244.6259913216437
 73
     1
 72
     2
 10
81.25949590919788
 20
340.3444405671634
 40
0.9118481501444847
 50
295.3740086781925
 51
424.6259913218244
 73
     0
 97
        8
330
210
330
171
330
20D
330
20E
330
1EC
330
170
330
20F
330
1EB
 92
       16
 93
       12
 72
     2
 10
79.20998992075405
 20
337.702839889569
 40
0.3157169230756836
 50
180.0
 51
270.0
 73
     1
 72
     1
 10
79.20998992075405
 20
337.3871229664923
 11
80.68582318176368
 21
337.3871229664923
 72
     2
 10
80.68582318176368
 20
337.702839889569
 40
0.3157169230767067
 50
270.0
 51
360.0
 73
     1
 72
     1
 10
81.00154010484027
 20
337.702839889569
 11
81.00154010484027
 21
339.2336108211006
 72
     2
 10
80.68582318176368
 20
339.2336108211006
 40
0.315716923076593
 50
0.0
 51
64.80558935146027
 73
     1
 72
     2
 10
81.20840762933867
 20
340.3444405671634
 40
0.9118975235575889
 50
115.1944106485122
 51
244.805589351471
 73
     0
 72
     2
 10
80.68582318176368
 20
341.4552703132256
 40
0.3157169230761203
 50
295.1944106485397
 51
360.0
 73
     1
 72
     1
 10
81.00154010484027
 20
341.4552703132256
 11
81.00154010484027
 21
342.0592949322861
 72
     2
 10
80.68582318176368
 20
342.0592949322861
 40
0.315716923076593
 50
0.0
 51
90.0
 73
     1
 72
     1
 10
80.68582318176368
 20
342.3750118553622
 11
79.20998992075405
 21
342.3750118553622
 72
     2
 10
79.20998992075405
 20
342.0592949322861
 40
0.3157169230760815
 50
90.0
 51
180.0
 73
     1
 72
     1
 10
78.89427299767837
 20
342.0592949322861
 11
78.89427299767837
 21
337.702839889569
 97
       12
330
1F4
330
1AC
330
1F7
330
1A7
330
204
330
205
330
1F6
330
1A6
330
1F5
330
1A5
330
206
330
1A4
 75
     1
 76
     0
 52
45.0
 41
0.1
 77
     0
 78
     1
 53
45.0
 43
0.0
 44
0.0
 45
-0.0707106781186548
 46
0.0707106781186548
 79
     0
 98
        1
 10
0.0
 20
0.0
  0
HATCH
  5
25B
330
71
100
AcDbEntity
  8
1
  6
Continuous
 62
     2
100
AcDbHatch
 10
0.0
 20
0.0
 30
0.0
210
0.0
220
0.0
230
1.0
  2
_USER
 70
     0
 71
     1
 91
        4
 92
        1
 93
        8
 72
     1
 10
84.51365195010825
 20
342.6633227955189
 11
84.51365195010825
 21
337.0988120263187
 72
     2
 10
84.08940733472437
 20
337.0988120263187
 40
0.4242446153832589
 50
0.0
 51
90.0
 73
     0
 72
     1
 10
84.08940733472437
 20
336.6745674109354
 11
78.61609524400757
 21
336.6745674109354
 72
     2
 10
78.61609524400757
 20
337.0988120263187
 40
0.4242446153828041
 50
90.0
 51
180.0
 73
     0
 72
     1
 10
78.19185062862476
 20
337.0988120263187
 11
78.19185062862476
 21
342.6633227955189
 72
     2
 10
78.61609524400757
 20
342.6633227955189
 40
0.4242446153837705
 50
180.0
 51
270.0
 73
     0
 72
     1
 10
78.61609524400757
 20
343.0875674109027
 11
84.08940733472437
 21
343.0875674109027
 72
     2
 10
84.08940733472437
 20
342.6633227955189
 40
0.4242446153838841
 50
270.0
 51
360.0
 73
     0
 97
        8
330
1AA
330
1F8
330
1AB
330
203
330
1A8
330
1FA
330
1A9
330
1F9
 92
       16
 93
        1
 72
     2
 10
81.23568089452507
 20
340.3444405671634
 40
0.4709789327785074
 50
0.0
 51
360.0
 73
     1
 97
        1
330
21E
 92
       16
 93
        8
 72
     2
 10
81.78553860728576
 20
339.2352989671949
 40
0.3157169230765842
 50
115.3740086783474
 51
180.0
 73
     1
 72
     1
 10
81.46982168420897
 20
339.2352989671949
 11
81.46982168420897
 21
338.6534475604999
 72
     2
 10
81.78553860728576
 20
338.6534475604999
 40
0.315716923076792
 50
180.0
 51
269.8110329574542
 73
     1
 72
     2
 10
81.79115474259578
 20
340.3562825080688
 40
2.018561131933209
 50
269.8110329575858
 51
450.1889670424142
 73
     1
 72
     2
 10
81.78553860728576
 20
342.059117455638
 40
0.3157169230759573
 50
90.188967042546
 51
180.0
 73
     1
 72
     1
 10
81.46982168420897
 20
342.059117455638
 11
81.46982168420897
 21
341.4535821671312
 72
     2
 10
81.78553860728576
 20
341.4535821671312
 40
0.315716923076792
 50
180.0
 51
244.6259913216437
 73
     1
 72
     2
 10
81.25949590919788
 20
340.3444405671634
 40
0.9118481501444847
 50
295.3740086781925
 51
424.6259913218244
 73
     0
 97
        8
330
210
330
171
330
20D
330
20E
330
1EC
330
170
330
20F
330
1EB
 92
       16
 93
       12
 72
     2
 10
79.20998992075405
 20
337.702839889569
 40
0.3157169230756836
 50
180.0
 51
270.0
 73
     1
 72
     1
 10
79.20998992075405
 20
337.3871229664923
 11
80.68582318176368
 21
337.3871229664923
 72
     2
 10
80.68582318176368
 20
337.702839889569
 40
0.3157169230767067
 50
270.0
 51
360.0
 73
     1
 72
     1
 10
81.00154010484027
 20
337.702839889569
 11
81.00154010484027
 21
339.2336108211006
 72
     2
 10
80.68582318176368
 20
339.2336108211006
 40
0.315716923076593
 50
0.0
 51
64.80558935146027
 73
     1
 72
     2
 10
81.20840762933867
 20
340.3444405671634
 40
0.9118975235575889
 50
115.1944106485122
 51
244.805589351471
 73
     0
 72
     2
 10
80.68582318176368
 20
341.4552703132256
 40
0.3157169230761203
 50
295.1944106485397
 51
360.0
 73
     1
 72
     1
 10
81.00154010484027
 20
341.4552703132256
 11
81.00154010484027
 21
342.0592949322861
 72
     2
 10
80.68582318176368
 20
342.0592949322861
 40
0.315716923076593
 50
0.0
 51
90.0
 73
     1
 72
     1
 10
80.68582318176368
 20
342.3750118553622
 11
79.20998992075405
 21
342.3750118553622
 72
     2
 10
79.20998992075405
 20
342.0592949322861
 40
0.3157169230760815
 50
90.0
 51
180.0
 73
     1
 72
     1
 10
78.89427299767837
 20
342.0592949322861
 11
78.89427299767837
 21
337.702839889569
 97
       12
330
1F4
330
1AC
330
1F7
330
1A7
330
204
330
205
330
1F6
330
1A6
330
1F5
330
1A5
330
206
330
1A4
 75
     1
 76
     0
 52
45.0
 41
0.1
 77
     0
 78
     1
 53
45.0
 43
0.0
 44
0.0
 45
-0.0707106781186548
 46
0.0707106781186548
 79
     0
 98
        1
 10
0.0
 20
0.0
  0
HATCH
  5
25C
330
71
100
AcDbEntity
  8
1
  6
Continuous
 62
     2
100
AcDbHatch
 10
0.0
 20
0.0
 30
0.0
210
0.0
220
0.0
230
1.0
  2
_USER
 70
     0
 71
     1
 91
        1
 92
        1
 93
       18
 72
     1
 10
106.1031998593293
 20
338.9431116286229
 11
105.2921008218559
 21
338.9431116286229
 72
     1
 10
105.2921008218559
 20
338.9431116286229
 11
105.2921008218559
 21
336.6745674109354
 72
     1
 10
105.2921008218559
 20
336.6745674109354
 11
104.0993081196882
 21
336.6745674109354
 72
     1
 10
104.0993081196882
 20
336.6745674109354
 11
104.0993081196882
 21
338.9431116286229
 72
     1
 10
104.0993081196882
 20
338.9431116286229
 11
102.9956688201201
 21
338.9431116286229
 72
     2
 10
102.9956688201201
 20
337.9885886217968
 40
0.9545230068260935
 50
90.0
 51
109.3371432194312
 73
     1
 72
     2
 10
102.8489988220164
 20
338.4065436021797
 40
0.5115800601944096
 50
109.3371432194838
 51
151.4785267424189
 73
     1
 72
     2
 10
103.2263560800978
 20
338.2014721728407
 40
0.941059735334906
 50
151.4785267423609
 51
208.5214732576695
 73
     1
 72
     2
 10
102.8489988220164
 20
337.9964007435021
 40
0.5115800601959548
 50
208.5214732576762
 51
246.6277221118399
 73
     1
 72
     2
 10
103.0054388547195
 20
338.3583927622121
 40
0.9059297849851757
 50
246.6277221118154
 51
288.448076118084
 73
     1
 72
     2
 10
102.5872711210576
 20
339.6119385382488
 40
2.227384008972773
 50
288.4480761181333
 51
301.930908949939
 73
     1
 72
     1
 10
103.7653261630815
 20
337.721587819099
 11
103.7653261630815
 21
336.8490708122956
 72
     2
 10
102.4293982459648
 20
341.5141531180971
 40
4.852596863498824
 50
74.0200087416619
 51
84.8418552303638
 73
     0
 72
     2
 10
102.7182543407006
 20
338.3142625348755
 40
1.639695123940421
 50
84.84185523032329
 51
164.9381082228985
 73
     0
 72
     2
 10
102.299126497239
 20
338.2014721728407
 40
1.205656168392989
 50
164.9381082229052
 51
195.0618917770974
 73
     0
 72
     2
 10
102.7182543407006
 20
338.0886818108057
 40
1.639695123940157
 50
195.0618917771072
 51
270.0
 73
     0
 72
     1
 10
102.7182543407006
 20
339.7283769347459
 11
106.1031998593293
 21
339.7283769347465
 72
     1
 10
106.1031998593293
 20
339.7283769347465
 11
106.1031998593293
 21
338.9431116286229
 97
       18
330
173
330
209
330
20A
330
1F2
330
1F1
330
1D7
330
1F0
330
1EF
330
20B
330
1EE
330
20C
330
1ED
330
1D8
330
172
330
177
330
176
330
175
330
174
 75
     1
 76
     0
 52
45.0
 41
0.1
 77
     0
 78
     1
 53
45.0
 43
0.0
 44
0.0
 45
-0.0707106781186548
 46
0.0707106781186548
 79
     0
 98
        1
 10
0.0
 20
0.0
  0
HATCH
  5
25D
330
71
100
AcDbEntity
  8
1
  6
Continuous
 62
     2
100
AcDbHatch
 10
0.0
 20
0.0
 30
0.0
210
0.0
220
0.0
230
1.0
  2
_USER
 70
     0
 71
     1
 91
        1
 92
        1
 93
       18
 72
     1
 10
106.1031998593293
 20
338.9431116286229
 11
105.2921008218559
 21
338.9431116286229
 72
     1
 10
105.2921008218559
 20
338.9431116286229
 11
105.2921008218559
 21
336.6745674109354
 72
     1
 10
105.2921008218559
 20
336.6745674109354
 11
104.0993081196882
 21
336.6745674109354
 72
     1
 10
104.0993081196882
 20
336.6745674109354
 11
104.0993081196882
 21
338.9431116286229
 72
     1
 10
104.0993081196882
 20
338.9431116286229
 11
102.9956688201201
 21
338.9431116286229
 72
     2
 10
102.9956688201201
 20
337.9885886217968
 40
0.9545230068260935
 50
90.0
 51
109.3371432194312
 73
     1
 72
     2
 10
102.8489988220164
 20
338.4065436021797
 40
0.5115800601944096
 50
109.3371432194838
 51
151.4785267424189
 73
     1
 72
     2
 10
103.2263560800978
 20
338.2014721728407
 40
0.941059735334906
 50
151.4785267423609
 51
208.5214732576695
 73
     1
 72
     2
 10
102.8489988220164
 20
337.9964007435021
 40
0.5115800601959548
 50
208.5214732576762
 51
246.6277221118399
 73
     1
 72
     2
 10
103.0054388547195
 20
338.3583927622121
 40
0.9059297849851757
 50
246.6277221118154
 51
288.448076118084
 73
     1
 72
     2
 10
102.5872711210576
 20
339.6119385382488
 40
2.227384008972773
 50
288.4480761181333
 51
301.930908949939
 73
     1
 72
     1
 10
103.7653261630815
 20
337.721587819099
 11
103.7653261630815
 21
336.8490708122956
 72
     2
 10
102.4293982459648
 20
341.5141531180971
 40
4.852596863498824
 50
74.0200087416619
 51
84.8418552303638
 73
     0
 72
     2
 10
102.7182543407006
 20
338.3142625348755
 40
1.639695123940421
 50
84.84185523032329
 51
164.9381082228985
 73
     0
 72
     2
 10
102.299126497239
 20
338.2014721728407
 40
1.205656168392989
 50
164.9381082229052
 51
195.0618917770974
 73
     0
 72
     2
 10
102.7182543407006
 20
338.0886818108057
 40
1.639695123940157
 50
195.0618917771072
 51
270.0
 73
     0
 72
     1
 10
102.7182543407006
 20
339.7283769347459
 11
106.1031998593293
 21
339.7283769347465
 72
     1
 10
106.1031998593293
 20
339.7283769347465
 11
106.1031998593293
 21
338.9431116286229
 97
       18
330
173
330
209
330
20A
330
1F2
330
1F1
330
1D7
330
1F0
330
1EF
330
20B
330
1EE
330
20C
330
1ED
330
1D8
330
172
330
177
330
176
330
175
330
174
 75
     1
 76
     0
 52
45.0
 41
0.1
 77
     0
 78
     1
 53
45.0
 43
0.0
 44
0.0
 45
-0.0707106781186548
 46
0.0707106781186548
 79
     0
 98
        1
 10
0.0
 20
0.0
  0
HATCH
  5
25E
330
71
100
AcDbEntity
  8
1
  6
Continuous
 62
     2
100
AcDbHatch
 10
0.0
 20
0.0
 30
0.0
210
0.0
220
0.0
230
1.0
  2
_USER
 70
     0
 71
     1
 91
        1
 92
        1
 93
       14
 72
     2
 10
86.61555286144767
 20
338.0886818108057
 40
1.639695123940563
 50
84.84185523036254
 51
164.9381082228846
 73
     1
 72
     2
 10
86.19642501798486
 20
338.2014721728407
 40
1.205656168390944
 50
164.9381082228765
 51
195.0618917770948
 73
     1
 72
     2
 10
86.61555286144767
 20
338.3142625348755
 40
1.639695123939395
 50
195.0618917770906
 51
275.1581447696391
 73
     1
 72
     2
 10
86.32669676671176
 20
341.5141531180971
 40
4.852596863498279
 50
275.1581447696248
 51
285.9799912583529
 73
     1
 72
     1
 10
87.66262468382956
 20
336.8490708122963
 11
87.66262468382956
 21
337.7215878190995
 72
     2
 10
86.48456964180468
 20
339.6119385382493
 40
2.227384008972656
 50
58.06909105003953
 51
71.55192388186651
 73
     0
 72
     2
 10
86.90273737546548
 20
338.3583927622121
 40
0.9059297849848149
 50
71.55192388183869
 51
113.3722778881318
 73
     0
 72
     2
 10
86.74629734276346
 20
337.9964007435021
 40
0.5115800601948034
 50
113.3722778881777
 51
151.4785267423044
 73
     0
 72
     2
 10
87.12365460084376
 20
338.2014721728407
 40
0.9410597353332545
 50
151.4785267422882
 51
208.5214732577331
 73
     0
 72
     2
 10
86.74629734276346
 20
338.4065436021797
 40
0.511580060194904
 50
208.5214732576956
 51
246.6277221118021
 73
     0
 72
     2
 10
86.90273737546548
 20
338.0445515834691
 40
0.9059297849853228
 50
246.627722111871
 51
288.4480761181465
 73
     0
 72
     2
 10
86.48456964180468
 20
336.7910058074325
 40
2.227384008973501
 50
288.4480761181326
 51
301.9309089499589
 73
     0
 72
     1
 10
87.66262468382956
 20
338.6813565265824
 11
87.66262468382956
 21
339.5538735333856
 72
     2
 10
86.32669676671176
 20
334.8887912275848
 40
4.852596863497986
 50
74.0200087416471
 51
84.84185523037502
 73
     1
 97
       14
330
211
330
212
330
213
330
214
330
1D9
330
1EA
330
1E9
330
1E8
330
215
330
216
330
1E7
330
217
330
1DA
330
1E6
 75
     1
 76
     0
 52
45.0
 41
0.1
 77
     0
 78
     1
 53
45.0
 43
0.0
 44
0.0
 45
-0.0707106781186548
 46
0.0707106781186548
 79
     0
 98
        1
 10
0.0
 20
0.0
  0
HATCH
  5
25F
330
71
100
AcDbEntity
  8
1
  6
Continuous
 62
     2
100
AcDbHatch
 10
0.0
 20
0.0
 30
0.0
210
0.0
220
0.0
230
1.0
  2
_USER
 70
     0
 71
     1
 91
        1
 92
        1
 93
       14
 72
     2
 10
86.61555286144767
 20
338.0886818108057
 40
1.639695123940563
 50
84.84185523036254
 51
164.9381082228846
 73
     1
 72
     2
 10
86.19642501798486
 20
338.2014721728407
 40
1.205656168390944
 50
164.9381082228765
 51
195.0618917770948
 73
     1
 72
     2
 10
86.61555286144767
 20
338.3142625348755
 40
1.639695123939395
 50
195.0618917770906
 51
275.1581447696391
 73
     1
 72
     2
 10
86.32669676671176
 20
341.5141531180971
 40
4.852596863498279
 50
275.1581447696248
 51
285.9799912583529
 73
     1
 72
     1
 10
87.66262468382956
 20
336.8490708122963
 11
87.66262468382956
 21
337.7215878190995
 72
     2
 10
86.48456964180468
 20
339.6119385382493
 40
2.227384008972656
 50
58.06909105003953
 51
71.55192388186651
 73
     0
 72
     2
 10
86.90273737546548
 20
338.3583927622121
 40
0.9059297849848149
 50
71.55192388183869
 51
113.3722778881318
 73
     0
 72
     2
 10
86.74629734276346
 20
337.9964007435021
 40
0.5115800601948034
 50
113.3722778881777
 51
151.4785267423044
 73
     0
 72
     2
 10
87.12365460084376
 20
338.2014721728407
 40
0.9410597353332545
 50
151.4785267422882
 51
208.5214732577331
 73
     0
 72
     2
 10
86.74629734276346
 20
338.4065436021797
 40
0.511580060194904
 50
208.5214732576956
 51
246.6277221118021
 73
     0
 72
     2
 10
86.90273737546548
 20
338.0445515834691
 40
0.9059297849853228
 50
246.627722111871
 51
288.4480761181465
 73
     0
 72
     2
 10
86.48456964180468
 20
336.7910058074325
 40
2.227384008973501
 50
288.4480761181326
 51
301.9309089499589
 73
     0
 72
     1
 10
87.66262468382956
 20
338.6813565265824
 11
87.66262468382956
 21
339.5538735333856
 72
     2
 10
86.32669676671176
 20
334.8887912275848
 40
4.852596863497986
 50
74.0200087416471
 51
84.84185523037502
 73
     1
 97
       14
330
211
330
212
330
213
330
214
330
1D9
330
1EA
330
1E9
330
1E8
330
215
330
216
330
1E7
330
217
330
1DA
330
1E6
 75
     1
 76
     0
 52
45.0
 41
0.1
 77
     0
 78
     1
 53
45.0
 43
0.0
 44
0.0
 45
-0.0707106781186548
 46
0.0707106781186548
 79
     0
 98
        1
 10
0.0
 20
0.0
  0
ENDBLK
  5
73
330
71
100
AcDbEntity
  8
0
100
AcDbBlockEnd
  0
BLOCK
  5
75
330
74
100
AcDbEntity
  8
0
100
AcDbBlockBegin
  2
_punkt
 70
     0
 10
203.5000002688122
 20
329.3810674109191
 30
0.0
  3
_punkt
  1

  0
LINE
  5
260
330
74
100
AcDbEntity
  8
1
  6
Continuous
 62
     2
100
AcDbLine
 10
203.5000002688122
 20
329.3810674109191
 30
0.0
 11
208.5000002688112
 21
329.3810674109191
 31
0.0
  0
LINE
  5
261
330
74
100
AcDbEntity
  8
1
  6
Continuous
 62
     2
100
AcDbLine
 10
203.5000002688122
 20
329.3810674109191
 30
0.0
 11
203.5000002688122
 21
324.3810674109189
 31
0.0
  0
ENDBLK
  5
76
330
74
100
AcDbEntity
  8
0
100
AcDbBlockEnd
  0
BLOCK
  5
7A
330
77
100
AcDbEntity
  8
0
100
AcDbBlockBegin
  2
A4I_CS
 70
     0
 10
203.5000002688122
 20
324.3810674109189
 30
0.0
  3
A4I_CS
  1

  0
INSERT
  5
78
330
77
100
AcDbEntity
  8
1
100
AcDbBlockReference
  2
_rahmen
 10
203.5000002688122
 20
324.3810674109189
 30
0.0
  0
INSERT
  5
79
330
77
100
AcDbEntity
  8
1
100
AcDbBlockReference
  2
_punkt
 10
203.5000002688122
 20
329.3810674109191
 30
0.0
  0
ENDBLK
  5
7B
330
77
100
AcDbEntity
  8
0
100
AcDbBlockEnd
  0
BLOCK
  5
84
330
7C
100
AcDbEntity
  8
0
100
AcDbBlockBegin
  2
1
 70
     0
 10
0.0
 20
0.0
 30
0.0
  3
1
  1

  0
INSERT
  5
7D
330
7C
100
AcDbEntity
  8
0
100
AcDbBlockReference
  2
AllgSicht1
 10
140.999999999998
 20
411.0
 30
0.0
  0
INSERT
  5
7E
330
7C
100
AcDbEntity
  8
0
100
AcDbBlockReference
  2
Drfsicht1
 10
12.0
 20
406.5000000000101
 30
0.0
  0
INSERT
  5
7F
330
7C
100
AcDbEntity
  8
0
100
AcDbBlockReference
  2
Rckans1
 10
141.0
 20
467.8750003576279
 30
0.0
  0
INSERT
  5
80
330
7C
100
AcDbEntity
  8
0
100
AcDbBlockReference
  2
SA_Links1
 10
71.99999999998857
 20
467.8750003576278
 30
0.0
  0
INSERT
  5
81
330
7C
100
AcDbEntity
  8
0
100
AcDbBlockReference
  2
SA_Rechts1
 10
-65.99999999999
 20
467.8750003576279
 30
0.0
  0
INSERT
  5
82
330
7C
100
AcDbEntity
  8
0
100
AcDbBlockReference
  2
Vordans1
 10
12.0000000000004
 20
467.8750003576279
 30
0.0
  0
INSERT
  5
83
330
7C
100
AcDbEntity
  8
0
100
AcDbBlockReference
  2
A4I_CS
 10
203.5000002688122
 20
324.3810674109189
 30
0.0
  0
ENDBLK
  5
85
330
7C
100
AcDbEntity
  8
0
100
AcDbBlockEnd
  0
BLOCK
  5
D0
330
C6
100
AcDbEntity
  8
0
100
AcDbBlockBegin
  2
*D17
 70
     1
 10
0.0
 20
0.0
 30
0.0
  3
*D17
  1

  0
LINE
  5
C7
330
C6
100
AcDbEntity
  8
1
  6
Continuous
 62
     2
100
AcDbLine
 10
-42.77185711583403
 20
418.955039461151
 30
0.0
 11
-42.77185711583403
 21
407.600000023862
 31
0.0
  0
LINE
  5
C8
330
C6
100
AcDbEntity
  8
1
  6
Continuous
 62
     2
100
AcDbLine
 10
-42.77185711583403
 20
407.600000023862
 30
0.0
 11
-42.77185711583403
 21
405.4000000238635
 31
0.0
  0
LINE
  5
C9
330
C6
100
AcDbEntity
  8
1
  6
Continuous
 62
     2
100
AcDbLine
 10
-42.77185711583403
 20
405.4000000238635
 30
0.0
 11
-42.77185711583403
 21
398.4000000238635
 31
0.0
  0
LINE
  5
CA
330
C6
100
AcDbEntity
  8
1
  6
Continuous
 62
     2
100
AcDbLine
 10
-32.77185711583402
 20
407.600000023862
 30
0.0
 11
-44.27185711583403
 21
407.600000023862
 31
0.0
  0
LINE
  5
CB
330
C6
100
AcDbEntity
  8
1
  6
Continuous
 62
     2
100
AcDbLine
 10
-32.77185711583402
 20
405.4000000238635
 30
0.0
 11
-44.27185711583403
 21
405.4000000238635
 31
0.0
  0
SOLID
  5
CC
330
C6
100
AcDbEntity
  8
1
 62
     2
100
AcDbTrace
 10
-43.23264085738992
 20
411.100000023862
 30
0.0
 11
-42.31107337427814
 21
411.100000023862
 31
0.0
 12
-42.77185711583403
 22
407.600000023862
 32
0.0
 13
-42.77185711583403
 23
407.600000023862
 33
0.0
  0
SOLID
  5
CD
330
C6
100
AcDbEntity
  8
1
 62
     2
100
AcDbTrace
 10
-42.31107337427814
 20
401.9000000238635
 30
0.0
 11
-43.23264085738992
 21
401.9000000238635
 31
0.0
 12
-42.77185711583403
 22
405.4000000238635
 32
0.0
 13
-42.77185711583403
 23
405.4000000238635
 33
0.0
  0
MTEXT
  5
CF
330
C6
100
AcDbEntity
  8
1
 62
     3
100
AcDbMText
 10
-44.62185711583403
 20
412.480039461151
 30
0.0
 40
3.5
 41
0.0
 71
     7
 72
     1
  1
2,2
  7
CONVERTER_11
 11
0.0
 21
1.0
 31
0.0
 73
     1
 44
0.60024009603842
  0
ENDBLK
  5
D1
330
C6
100
AcDbEntity
  8
0
100
AcDbBlockEnd
  0
BLOCK
  5
11A
330
113
100
AcDbEntity
  8
0
100
AcDbBlockBegin
  2
*D18
 70
     1
 10
0.0
 20
0.0
 30
0.0
  3
*D18
  1

  0
LINE
  5
114
330
113
100
AcDbEntity
  8
1
  6
Continuous
 62
     2
100
AcDbLine
 10
-45.00000053761386
 20
483.6499998380099
 30
0.0
 11
-45.00000053761386
 21
452.0999998380189
 31
0.0
  0
LINE
  5
115
330
113
100
AcDbEntity
  8
1
  6
Continuous
 62
     2
100
AcDbLine
 10
-32.77185711583366
 20
483.6499998380099
 30
0.0
 11
-46.50000053761386
 21
483.6499998380099
 31
0.0
  0
LINE
  5
116
330
113
100
AcDbEntity
  8
1
  6
Continuous
 62
     2
100
AcDbLine
 10
-35.00000053761386
 20
452.0999998380189
 30
0.0
 11
-46.50000053761386
 21
452.0999998380189
 31
0.0
  0
SOLID
  5
117
330
113
100
AcDbEntity
  8
1
 62
     2
100
AcDbTrace
 10
-44.53921679605798
 20
480.1499998380099
 30
0.0
 11
-45.46078427916975
 21
480.1499998380099
 31
0.0
 12
-45.00000053761386
 22
483.6499998380099
 32
0.0
 13
-45.00000053761386
 23
483.6499998380099
 33
0.0
  0
SOLID
  5
118
330
113
100
AcDbEntity
  8
1
 62
     2
100
AcDbTrace
 10
-45.46078427916975
 20
455.5999998380189
 30
0.0
 11
-44.53921679605798
 21
455.5999998380189
 31
0.0
 12
-45.00000053761386
 22
452.0999998380189
 32
0.0
 13
-45.00000053761386
 23
452.0999998380189
 33
0.0
  0
MTEXT
  5
119
330
113
100
AcDbEntity
  8
1
 62
     3
100
AcDbMText
 10
-46.85000053761386
 20
460.161348192797
 30
0.0
 40
3.5
 41
0.0
 71
     7
 72
     1
  1
31,55
  7
CONVERTER_11
 11
0.0
 21
1.0
 31
0.0
 73
     1
 44
0.60024009603842
  0
ENDBLK
  5
11B
330
113
100
AcDbEntity
  8
0
100
AcDbBlockEnd
  0
BLOCK
  5
125
330
11E
100
AcDbEntity
  8
0
100
AcDbBlockBegin
  2
*D19
 70
     1
 10
0.0
 20
0.0
 30
0.0
  3
*D19
  1

  0
LINE
  5
11F
330
11E
100
AcDbEntity
  8
1
  6
Continuous
 62
     2
100
AcDbLine
 10
-35.00000053761386
 20
442.0999998380189
 30
0.0
 11
58.9999994637485
 21
442.0999998380189
 31
0.0
  0
LINE
  5
120
330
11E
100
AcDbEntity
  8
1
  6
Continuous
 62
     2
100
AcDbLine
 10
-35.00000053761386
 20
452.0999998380189
 30
0.0
 11
-35.00000053761386
 21
440.5999998380189
 31
0.0
  0
LINE
  5
121
330
11E
100
AcDbEntity
  8
1
  6
Continuous
 62
     2
100
AcDbLine
 10
58.9999994637485
 20
455.0990448364281
 30
0.0
 11
58.9999994637485
 21
440.5999998380189
 31
0.0
  0
SOLID
  5
122
330
11E
100
AcDbEntity
  8
1
 62
     2
100
AcDbTrace
 10
-31.50000053761386
 20
442.5607835795748
 30
0.0
 11
-31.50000053761386
 21
441.639216096463
 31
0.0
 12
-35.00000053761386
 22
442.0999998380189
 32
0.0
 13
-35.00000053761386
 23
442.0999998380189
 33
0.0
  0
SOLID
  5
123
330
11E
100
AcDbEntity
  8
1
 62
     2
100
AcDbTrace
 10
55.4999994637485
 20
441.639216096463
 30
0.0
 11
55.4999994637485
 21
442.5607835795748
 31
0.0
 12
58.9999994637485
 22
442.0999998380189
 32
0.0
 13
58.9999994637485
 23
442.0999998380189
 33
0.0
  0
MTEXT
  5
124
330
11E
100
AcDbEntity
  8
1
 62
     3
100
AcDbMText
 10
6.66087028529581
 20
443.5999998380189
 30
0.0
 40
3.5
 41
0.0
 71
     7
 72
     1
  1
94
  7
CONVERTER_11
 11
0.9999999999970619
 21
2.424068405545306E-6
 31
0.0
 73
     1
 44
0.60024009603842
  0
ENDBLK
  5
126
330
11E
100
AcDbEntity
  8
0
100
AcDbBlockEnd
  0
ENDSEC
  0
SECTION
  2
ENTITIES
  0
INSERT
  5
86
330
1F
100
AcDbEntity
  8
1
100
AcDbBlockReference
  2
1
 10
0.0
 20
0.0
 30
0.0
  0
ENDSEC
  0
SECTION
  2
OBJECTS
  0
DICTIONARY
  5
C
330
0
100
AcDbDictionary
281
     1
  3
ACAD_GROUP
350
D
  3
ACAD_LAYOUT
350
1A
  3
ACAD_MATERIAL
350
3B
  3
ACAD_MLEADERSTYLE
350
289
  3
ACAD_MLINESTYLE
350
17
  3
ACAD_PLOTSETTINGS
350
19
  3
ACAD_PLOTSTYLENAME
350
E
  3
ACAD_TABLESTYLE
350
288
  3
ACAD_VISUALSTYLE
350
2A
  0
DICTIONARY
  5
D
102
{ACAD_REACTORS
330
C
102
}
330
C
100
AcDbDictionary
281
     1
  0
DICTIONARY
  5
1A
102
{ACAD_REACTORS
330
C
102
}
330
C
100
AcDbDictionary
281
     1
  3
Layout1
350
1E
  3
Layout2
350
26
  3
Model
350
22
  0
DICTIONARY
  5
3B
102
{ACAD_REACTORS
330
C
102
}
330
C
100
AcDbDictionary
281
     1
  3
ByBlock
350
3D
  3
ByLayer
350
3C
  3
Global
350
3E
  0
DICTIONARY
  5
289
102
{ACAD_REACTORS
330
C
102
}
330
C
100
AcDbDictionary
281
     1
  0
DICTIONARY
  5
17
102
{ACAD_REACTORS
330
C
102
}
330
C
100
AcDbDictionary
281
     1
  3
Standard
350
18
  0
DICTIONARY
  5
19
102
{ACAD_REACTORS
330
C
102
}
330
C
100
AcDbDictionary
281
     1
  0
ACDBDICTIONARYWDFLT
  5
E
102
{ACAD_REACTORS
330
C
102
}
330
C
100
AcDbDictionary
281
     1
  3
Normal
350
F
100
AcDbDictionaryWithDefault
340
F
  0
DICTIONARY
  5
288
102
{ACAD_REACTORS
330
C
102
}
330
C
100
AcDbDictionary
281
     1
  0
DICTIONARY
  5
2A
102
{ACAD_REACTORS
330
C
102
}
330
C
100
AcDbDictionary
281
     1
  3
2dWireframe
350
2F
  3
3D Hidden
350
31
  3
3dWireframe
350
30
  3
Basic
350
32
  3
Brighten
350
36
  3
ColorChange
350
3A
  3
Conceptual
350
34
  3
Dim
350
35
  3
Facepattern
350
39
  3
Flat
350
2B
  3
FlatWithEdges
350
2C
  3
Gouraud
350
2D
  3
GouraudWithEdges
350
2E
  3
Linepattern
350
38
  3
Realistic
350
33
  3
Thicken
350
37
  0
LAYOUT
  5
1E
102
{ACAD_REACTORS
330
1A
102
}
330
1A
100
AcDbPlotSettings
  1

  2
none_device
  4

  6

 40
0.0
 41
0.0
 42
0.0
 43
0.0
 44
0.0
 45
0.0
 46
0.0
 47
0.0
 48
0.0
 49
0.0
140
0.0
141
0.0
142
1.0
143
1.0
 70
   688
 72
     0
 73
     0
 74
     5
  7

 75
    16
 76
     0
 77
     2
 78
   300
147
1.0
148
0.0
149
0.0
100
AcDbLayout
  1
Layout1
 70
     1
 71
     1
 10
0.0
 20
0.0
 11
12.0
 21
9.0
 12
0.0
 22
0.0
 32
0.0
 14
1.00000000000000E+20
 24
1.00000000000000E+20
 34
1.00000000000000E+20
 15
-1.00000000000000E+20
 25
-1.00000000000000E+20
 35
-1.00000000000000E+20
146
0.0
 13
0.0
 23
0.0
 33
0.0
 16
1.0
 26
0.0
 36
0.0
 17
0.0
 27
1.0
 37
0.0
 76
     0
330
1B
  0
LAYOUT
  5
26
102
{ACAD_REACTORS
330
1A
102
}
330
1A
100
AcDbPlotSettings
  1

  2
none_device
  4

  6

 40
0.0
 41
0.0
 42
0.0
 43
0.0
 44
0.0
 45
0.0
 46
0.0
 47
0.0
 48
0.0
 49
0.0
140
0.0
141
0.0
142
1.0
143
1.0
 70
   688
 72
     0
 73
     0
 74
     5
  7

 75
    16
 76
     0
 77
     2
 78
   300
147
1.0
148
0.0
149
0.0
100
AcDbLayout
  1
Layout2
 70
     1
 71
     2
 10
0.0
 20
0.0
 11
0.0
 21
0.0
 12
0.0
 22
0.0
 32
0.0
 14
0.0
 24
0.0
 34
0.0
 15
0.0
 25
0.0
 35
0.0
146
0.0
 13
0.0
 23
0.0
 33
0.0
 16
1.0
 26
0.0
 36
0.0
 17
0.0
 27
1.0
 37
0.0
 76
     0
330
23
  0
LAYOUT
  5
22
102
{ACAD_REACTORS
330
1A
102
}
330
1A
100
AcDbPlotSettings
  1

  2
none_device
  4

  6

 40
0.0
 41
0.0
 42
0.0
 43
0.0
 44
0.0
 45
0.0
 46
0.0
 47
0.0
 48
0.0
 49
0.0
140
0.0
141
0.0
142
1.0
143
1.0
 70
  1712
 72
     0
 73
     0
 74
     0
  7

 75
     0
 76
     0
 77
     2
 78
   300
147
1.0
148
0.0
149
0.0
100
AcDbLayout
  1
Model
 70
     1
 71
     0
 10
0.0
 20
0.0
 11
12.0
 21
9.0
 12
0.0
 22
0.0
 32
0.0
 14
-88.4999997311869
 24
324.3810674109189
 34
0.0
 15
208.5000002688112
 25
534.3810674109191
 35
0.0
146
0.0
 13
0.0
 23
0.0
 33
0.0
 16
1.0
 26
0.0
 36
0.0
 17
0.0
 27
1.0
 37
0.0
 76
     0
330
1F
331
29
  0
MATERIAL
  5
3D
102
{ACAD_REACTORS
330
3B
102
}
102
{ACAD_XDICTIONARY
360
284
102
}
330
3B
100
AcDbMaterial
  1
ByBlock
  0
MATERIAL
  5
3C
102
{ACAD_REACTORS
330
3B
102
}
102
{ACAD_XDICTIONARY
360
282
102
}
330
3B
100
AcDbMaterial
  1
ByLayer
  0
MATERIAL
  5
3E
102
{ACAD_REACTORS
330
3B
102
}
102
{ACAD_XDICTIONARY
360
286
102
}
330
3B
100
AcDbMaterial
  1
Global
  0
MLINESTYLE
  5
18
102
{ACAD_REACTORS
330
17
102
}
330
17
100
AcDbMlineStyle
  2
Standard
 70
     0
  3

 62
   256
 51
90.0
 52
90.0
 71
     2
 49
0.5
 62
   256
  6
BYLAYER
 49
-0.5
 62
   256
  6
BYLAYER
  0
ACDBPLACEHOLDER
  5
F
102
{ACAD_REACTORS
330
E
102
}
330
E
  0
VISUALSTYLE
  5
2F
102
{ACAD_REACTORS
330
2A
102
}
102
{ACAD_XDICTIONARY
360
26A
102
}
330
2A
100
AcDbVisualStyle
  2
2dWireframe
 70
     4
 71
     0
 72
     2
 73
     0
 90
        0
 40
-0.6
 41
-30.0
 62
     5
 63
     7
421
 16777215
 74
     1
 91
        4
 64
     7
 65
   257
 75
     1
175
     1
 42
1.0
 92
        0
 66
   257
 43
1.0
 76
     1
 77
     6
 78
     2
 67
     7
 79
     5
170
     0
171
     0
290
     0
174
     0
 93
        1
 44
0.0
173
     0
291
     0
 45
0.0
1001
ACAD
1000
AcDbSavedByObjectVersion
1070
     0
  0
VISUALSTYLE
  5
31
102
{ACAD_REACTORS
330
2A
102
}
102
{ACAD_XDICTIONARY
360
26E
102
}
330
2A
100
AcDbVisualStyle
  2
3D Hidden
 70
     6
 71
     1
 72
     2
 73
     2
 90
        0
 40
-0.6
 41
-30.0
 62
     5
 63
     7
421
 16777215
 74
     2
 91
        2
 64
     7
 65
   257
 75
     2
175
     1
 42
40.0
 92
        0
 66
   257
 43
1.0
 76
     1
 77
     6
 78
     2
 67
     7
 79
     3
170
     0
171
     0
290
     0
174
     0
 93
        1
 44
0.0
173
     0
291
     0
 45
0.0
1001
ACAD
1000
AcDbSavedByObjectVersion
1070
     0
  0
VISUALSTYLE
  5
30
102
{ACAD_REACTORS
330
2A
102
}
102
{ACAD_XDICTIONARY
360
26C
102
}
330
2A
100
AcDbVisualStyle
  2
3dWireframe
 70
     5
 71
     0
 72
     2
 73
     0
 90
        0
 40
-0.6
 41
-30.0
 62
     5
 63
     7
421
 16777215
 74
     1
 91
        4
 64
     7
 65
   257
 75
     1
175
     1
 42
1.0
 92
        0
 66
   257
 43
1.0
 76
     1
 77
     6
 78
     2
 67
     7
 79
     5
170
     0
171
     0
290
     0
174
     0
 93
        1
 44
0.0
173
     0
291
     0
 45
0.0
1001
ACAD
1000
AcDbSavedByObjectVersion
1070
     0
  0
VISUALSTYLE
  5
32
102
{ACAD_REACTORS
330
2A
102
}
102
{ACAD_XDICTIONARY
360
270
102
}
330
2A
100
AcDbVisualStyle
  2
Basic
 70
     7
 71
     1
 72
     0
 73
     1
 90
        0
 40
-0.6
 41
-30.0
 62
     5
 63
     7
421
 16777215
 74
     0
 91
        4
 64
     7
 65
   257
 75
     1
175
     1
 42
1.0
 92
        8
 66
     7
 43
1.0
 76
     1
 77
     6
 78
     2
 67
     7
 79
     5
170
     0
171
     0
290
     0
174
     0
 93
        1
 44
0.0
173
     0
291
     1
 45
0.0
1001
ACAD
1000
AcDbSavedByObjectVersion
1070
     0
  0
VISUALSTYLE
  5
36
102
{ACAD_REACTORS
330
2A
102
}
102
{ACAD_XDICTIONARY
360
278
102
}
330
2A
100
AcDbVisualStyle
  2
Brighten
 70
    12
 71
     2
 72
     2
 73
     0
 90
        0
 40
-0.6
 41
-30.0
 62
     5
 63
     7
421
 16777215
 74
     1
 91
        4
 64
     7
 65
   257
 75
     1
175
     1
 42
1.0
 92
        8
 66
     7
 43
1.0
 76
     1
 77
     6
 78
     2
 67
     7
 79
     5
170
     0
171
     0
290
     0
174
     0
 93
        1
 44
50.0
173
     0
291
     1
 45
0.0
1001
ACAD
1000
AcDbSavedByObjectVersion
1070
     0
  0
VISUALSTYLE
  5
3A
102
{ACAD_REACTORS
330
2A
102
}
102
{ACAD_XDICTIONARY
360
280
102
}
330
2A
100
AcDbVisualStyle
  2
ColorChange
 70
    16
 71
     2
 72
     2
 73
     3
 90
        0
 40
-0.6
 41
-30.0
 62
     5
 63
     8
421
  8421504
 74
     1
 91
        4
 64
     7
 65
   257
 75
     1
175
     1
 42
1.0
 92
        8
 66
     8
424
  8421504
 43
1.0
 76
     1
 77
     6
 78
     2
 67
     7
 79
     5
170
     0
171
     0
290
     0
174
     0
 93
        1
 44
0.0
173
     0
291
     1
 45
0.0
1001
ACAD
1000
AcDbSavedByObjectVersion
1070
     0
  0
VISUALSTYLE
  5
34
102
{ACAD_REACTORS
330
2A
102
}
102
{ACAD_XDICTIONARY
360
274
102
}
330
2A
100
AcDbVisualStyle
  2
Conceptual
 70
     9
 71
     3
 72
     2
 73
     0
 90
        0
 40
-0.6
 41
-30.0
 62
     5
 63
     7
421
 16777215
 74
     2
 91
        2
 64
     7
 65
   257
 75
     1
175
     1
 42
40.0
 92
        8
 66
     7
 43
1.0
 76
     1
 77
     6
 78
     2
 67
     7
 79
     3
170
     0
171
     0
290
     0
174
     0
 93
        1
 44
0.0
173
     0
291
     0
 45
0.0
1001
ACAD
1000
AcDbSavedByObjectVersion
1070
     0
  0
VISUALSTYLE
  5
35
102
{ACAD_REACTORS
330
2A
102
}
102
{ACAD_XDICTIONARY
360
276
102
}
330
2A
100
AcDbVisualStyle
  2
Dim
 70
    11
 71
     2
 72
     2
 73
     0
 90
        0
 40
-0.6
 41
-30.0
 62
     5
 63
     7
421
 16777215
 74
     1
 91
        4
 64
     7
 65
   257
 75
     1
175
     1
 42
1.0
 92
        8
 66
     7
 43
1.0
 76
     1
 77
     6
 78
     2
 67
     7
 79
     5
170
     0
171
     0
290
     0
174
     0
 93
        1
 44
-50.0
173
     0
291
     1
 45
0.0
1001
ACAD
1000
AcDbSavedByObjectVersion
1070
     0
  0
VISUALSTYLE
  5
39
102
{ACAD_REACTORS
330
2A
102
}
102
{ACAD_XDICTIONARY
360
27E
102
}
330
2A
100
AcDbVisualStyle
  2
Facepattern
 70
    15
 71
     2
 72
     2
 73
     0
 90
        0
 40
-0.6
 41
-30.0
 62
     5
 63
     7
421
 16777215
 74
     1
 91
        4
 64
     7
 65
   257
 75
     1
175
     1
 42
1.0
 92
        8
 66
     7
 43
1.0
 76
     1
 77
     6
 78
     2
 67
     7
 79
     5
170
     0
171
     0
290
     0
174
     0
 93
        1
 44
0.0
173
     0
291
     1
 45
0.0
1001
ACAD
1000
AcDbSavedByObjectVersion
1070
     0
  0
VISUALSTYLE
  5
2B
102
{ACAD_REACTORS
330
2A
102
}
102
{ACAD_XDICTIONARY
360
262
102
}
330
2A
100
AcDbVisualStyle
  2
Flat
 70
     0
 71
     2
 72
     1
 73
     1
 90
        2
 40
-0.6
 41
30.0
 62
     5
 63
     7
421
 16777215
 74
     0
 91
        4
 64
     7
 65
   257
 75
     1
175
     1
 42
1.0
 92
        8
 66
     7
 43
1.0
 76
     1
 77
     6
 78
     2
 67
     7
 79
     5
170
     0
171
     0
290
     0
174
     0
 93
       13
 44
0.0
173
     0
291
     1
 45
0.0
1001
ACAD
1000
AcDbSavedByObjectVersion
1070
     0
  0
VISUALSTYLE
  5
2C
102
{ACAD_REACTORS
330
2A
102
}
102
{ACAD_XDICTIONARY
360
264
102
}
330
2A
100
AcDbVisualStyle
  2
FlatWithEdges
 70
     1
 71
     2
 72
     1
 73
     1
 90
        2
 40
-0.6
 41
30.0
 62
     5
 63
     7
421
 16777215
 74
     1
 91
        4
 64
     7
 65
   257
 75
     1
175
     1
 42
1.0
 92
        0
 66
   257
 43
1.0
 76
     1
 77
     6
 78
     2
 67
     7
 79
     5
170
     0
171
     0
290
     0
174
     0
 93
       13
 44
0.0
173
     0
291
     1
 45
0.0
1001
ACAD
1000
AcDbSavedByObjectVersion
1070
     0
  0
VISUALSTYLE
  5
2D
102
{ACAD_REACTORS
330
2A
102
}
102
{ACAD_XDICTIONARY
360
266
102
}
330
2A
100
AcDbVisualStyle
  2
Gouraud
 70
     2
 71
     2
 72
     2
 73
     1
 90
        2
 40
-0.6
 41
30.0
 62
     5
 63
     7
421
 16777215
 74
     0
 91
        4
 64
     7
 65
   257
 75
     1
175
     1
 42
1.0
 92
        0
 66
     7
 43
1.0
 76
     1
 77
     6
 78
     2
 67
     7
 79
     5
170
     0
171
     0
290
     0
174
     0
 93
       13
 44
0.0
173
     0
291
     1
 45
0.0
1001
ACAD
1000
AcDbSavedByObjectVersion
1070
     0
  0
VISUALSTYLE
  5
2E
102
{ACAD_REACTORS
330
2A
102
}
102
{ACAD_XDICTIONARY
360
268
102
}
330
2A
100
AcDbVisualStyle
  2
GouraudWithEdges
 70
     3
 71
     2
 72
     2
 73
     1
 90
        2
 40
-0.6
 41
30.0
 62
     5
 63
     7
421
 16777215
 74
     1
 91
        4
 64
     7
 65
   257
 75
     1
175
     1
 42
1.0
 92
        0
 66
   257
 43
1.0
 76
     1
 77
     6
 78
     2
 67
     7
 79
     5
170
     0
171
     0
290
     0
174
     0
 93
       13
 44
0.0
173
     0
291
     1
 45
0.0
1001
ACAD
1000
AcDbSavedByObjectVersion
1070
     0
  0
VISUALSTYLE
  5
38
102
{ACAD_REACTORS
330
2A
102
}
102
{ACAD_XDICTIONARY
360
27C
102
}
330
2A
100
AcDbVisualStyle
  2
Linepattern
 70
    14
 71
     2
 72
     2
 73
     0
 90
        0
 40
-0.6
 41
-30.0
 62
     5
 63
     7
421
 16777215
 74
     1
 91
        4
 64
     7
 65
   257
 75
     7
175
     7
 42
1.0
 92
        8
 66
     7
 43
1.0
 76
     1
 77
     6
 78
     2
 67
     7
 79
     5
170
     0
171
     0
290
     0
174
     0
 93
        1
 44
0.0
173
     0
291
     1
 45
0.0
1001
ACAD
1000
AcDbSavedByObjectVersion
1070
     0
  0
VISUALSTYLE
  5
33
102
{ACAD_REACTORS
330
2A
102
}
102
{ACAD_XDICTIONARY
360
272
102
}
330
2A
100
AcDbVisualStyle
  2
Realistic
 70
     8
 71
     2
 72
     2
 73
     0
 90
        0
 40
-0.6
 41
-30.0
 62
     5
 63
     7
421
 16777215
 74
     1
 91
        0
 64
     7
 65
   257
 75
     1
175
     1
 42
1.0
 92
        8
 66
     8
424
  7895160
 43
1.0
 76
     1
 77
     6
 78
     2
 67
     7
 79
     5
170
     0
171
     0
290
     0
174
     0
 93
       13
 44
0.0
173
     0
291
     0
 45
0.0
1001
ACAD
1000
AcDbSavedByObjectVersion
1070
     0
  0
VISUALSTYLE
  5
37
102
{ACAD_REACTORS
330
2A
102
}
102
{ACAD_XDICTIONARY
360
27A
102
}
330
2A
100
AcDbVisualStyle
  2
Thicken
 70
    13
 71
     2
 72
     2
 73
     0
 90
        0
 40
-0.6
 41
-30.0
 62
     5
 63
     7
421
 16777215
 74
     1
 91
        4
 64
     7
 65
   257
 75
     1
175
     1
 42
1.0
 92
       12
 66
     7
 43
1.0
 76
     1
 77
     6
 78
     2
 67
     7
 79
     5
170
     0
171
     0
290
     0
174
     0
 93
        1
 44
0.0
173
     0
291
     1
 45
0.0
1001
ACAD
1000
AcDbSavedByObjectVersion
1070
     0
  0
DICTIONARY
  5
284
330
3D
100
AcDbDictionary
280
     1
281
     1
  3
ACAD_XREC_ROUNDTRIP
360
285
  0
DICTIONARY
  5
282
330
3C
100
AcDbDictionary
280
     1
281
     1
  3
ACAD_XREC_ROUNDTRIP
360
283
  0
DICTIONARY
  5
286
330
3E
100
AcDbDictionary
280
     1
281
     1
  3
ACAD_XREC_ROUNDTRIP
360
287
  0
DICTIONARY
  5
26A
330
2F
100
AcDbDictionary
280
     1
281
     1
  3
ACAD_XREC_ROUNDTRIP
360
26B
  0
DICTIONARY
  5
26E
330
31
100
AcDbDictionary
280
     1
281
     1
  3
ACAD_XREC_ROUNDTRIP
360
26F
  0
DICTIONARY
  5
26C
330
30
100
AcDbDictionary
280
     1
281
     1
  3
ACAD_XREC_ROUNDTRIP
360
26D
  0
DICTIONARY
  5
270
330
32
100
AcDbDictionary
280
     1
281
     1
  3
ACAD_XREC_ROUNDTRIP
360
271
  0
DICTIONARY
  5
278
330
36
100
AcDbDictionary
280
     1
281
     1
  3
ACAD_XREC_ROUNDTRIP
360
279
  0
DICTIONARY
  5
280
330
3A
100
AcDbDictionary
280
     1
281
     1
  3
ACAD_XREC_ROUNDTRIP
360
281
  0
DICTIONARY
  5
274
330
34
100
AcDbDictionary
280
     1
281
     1
  3
ACAD_XREC_ROUNDTRIP
360
275
  0
DICTIONARY
  5
276
330
35
100
AcDbDictionary
280
     1
281
     1
  3
ACAD_XREC_ROUNDTRIP
360
277
  0
DICTIONARY
  5
27E
330
39
100
AcDbDictionary
280
     1
281
     1
  3
ACAD_XREC_ROUNDTRIP
360
27F
  0
DICTIONARY
  5
262
330
2B
100
AcDbDictionary
280
     1
281
     1
  3
ACAD_XREC_ROUNDTRIP
360
263
  0
DICTIONARY
  5
264
330
2C
100
AcDbDictionary
280
     1
281
     1
  3
ACAD_XREC_ROUNDTRIP
360
265
  0
DICTIONARY
  5
266
330
2D
100
AcDbDictionary
280
     1
281
     1
  3
ACAD_XREC_ROUNDTRIP
360
267
  0
DICTIONARY
  5
268
330
2E
100
AcDbDictionary
280
     1
281
     1
  3
ACAD_XREC_ROUNDTRIP
360
269
  0
DICTIONARY
  5
27C
330
38
100
AcDbDictionary
280
     1
281
     1
  3
ACAD_XREC_ROUNDTRIP
360
27D
  0
DICTIONARY
  5
272
330
33
100
AcDbDictionary
280
     1
281
     1
  3
ACAD_XREC_ROUNDTRIP
360
273
  0
DICTIONARY
  5
27A
330
37
100
AcDbDictionary
280
     1
281
     1
  3
ACAD_XREC_ROUNDTRIP
360
27B
  0
XRECORD
  5
285
102
{ACAD_REACTORS
330
284
102
}
330
284
100
AcDbXrecord
280
     1
102
MATERIAL
148
0.0
149
0.0
149
0.0
 93
        0
 94
      127
282
     0
 72
     1
 77
     1
171
     1
175
     1
179
     1
273
     0
  0
XRECORD
  5
283
102
{ACAD_REACTORS
330
282
102
}
330
282
100
AcDbXrecord
280
     1
102
MATERIAL
148
0.0
149
0.0
149
0.0
 93
        0
 94
      127
282
     0
 72
     1
 77
     1
171
     1
175
     1
179
     1
273
     0
  0
XRECORD
  5
287
102
{ACAD_REACTORS
330
286
102
}
330
286
100
AcDbXrecord
280
     1
102
MATERIAL
148
0.0
149
0.0
149
0.0
 93
        0
 94
      127
282
     0
 72
     1
 77
     1
171
     1
175
     1
179
     1
273
     0
  0
XRECORD
  5
26B
102
{ACAD_REACTORS
330
26A
102
}
330
26A
100
AcDbXrecord
280
     1
102
RTVSPropertyOp0
 70
     1
102
RTVSPropertyOp1
 70
     1
102
RTVSPropertyOp2
 70
     1
102
RTVSPropertyOp3
 70
     1
102
RTVSPropertyOp4
 70
     1
102
RTVSPropertyOp5
 70
     1
102
RTVSPropertyOp6
 70
     1
102
RTVSPropertyOp7
 70
     1
102
RTVSPropertyOp8
 70
     1
102
RTVSPropertyOp9
 70
     1
102
RTVSPropertyOp10
 70
     1
102
RTVSPropertyOp11
 70
     1
102
RTVSPropertyOp12
 70
     1
102
RTVSPropertyOp13
 70
     1
102
RTVSPropertyOp14
 70
     1
102
RTVSPropertyOp15
 70
     1
102
RTVSPropertyOp16
 70
     1
102
RTVSPropertyOp17
 70
     1
102
RTVSPropertyOp18
 70
     1
102
RTVSPropertyOp19
 70
     1
102
RTVSPropertyOp20
 70
     1
102
RTVSPropertyOp21
 70
     1
102
RTVSPropertyOp22
 70
     1
102
RTVSPropertyOp23
 70
     1
102
RTVSPropertyOp24
 70
     1
102
RTVSPropertyOp25
 70
     1
102
RTVSPropertyOp26
 70
     1
102
RTVSPropertyOp27
 70
     1
102
RTVSPropertyOp28
 70
     1
102
RTVSPropertyOp29
 70
     1
102
RTVSPropertyOp30
 70
     1
102
RTVSPropertyOp31
 70
     1
102
RTVSPropertyOp32
 70
     1
  0
XRECORD
  5
26F
102
{ACAD_REACTORS
330
26E
102
}
330
26E
100
AcDbXrecord
280
     1
102
RTVSPropertyOp0
 70
     1
102
RTVSPropertyOp1
 70
     1
102
RTVSPropertyOp2
 70
     1
102
RTVSPropertyOp3
 70
     1
102
RTVSPropertyOp4
 70
     1
102
RTVSPropertyOp5
 70
     1
102
RTVSPropertyOp6
 70
     1
102
RTVSPropertyOp7
 70
     1
102
RTVSPropertyOp8
 70
     1
102
RTVSPropertyOp9
 70
     1
102
RTVSPropertyOp10
 70
     1
102
RTVSPropertyOp11
 70
     1
102
RTVSPropertyOp12
 70
     1
102
RTVSPropertyOp13
 70
     1
102
RTVSPropertyOp14
 70
     1
102
RTVSPropertyOp15
 70
     1
102
RTVSPropertyOp16
 70
     1
102
RTVSPropertyOp17
 70
     1
102
RTVSPropertyOp18
 70
     1
102
RTVSPropertyOp19
 70
     1
102
RTVSPropertyOp20
 70
     1
102
RTVSPropertyOp21
 70
     1
102
RTVSPropertyOp22
 70
     1
102
RTVSPropertyOp23
 70
     1
102
RTVSPropertyOp24
 70
     1
102
RTVSPropertyOp25
 70
     1
102
RTVSPropertyOp26
 70
     1
102
RTVSPropertyOp27
 70
     1
102
RTVSPropertyOp28
 70
     1
102
RTVSPropertyOp29
 70
     1
102
RTVSPropertyOp30
 70
     1
102
RTVSPropertyOp31
 70
     1
102
RTVSPropertyOp32
 70
     1
  0
XRECORD
  5
26D
102
{ACAD_REACTORS
330
26C
102
}
330
26C
100
AcDbXrecord
280
     1
102
RTVSPropertyOp0
 70
     1
102
RTVSPropertyOp1
 70
     1
102
RTVSPropertyOp2
 70
     1
102
RTVSPropertyOp3
 70
     1
102
RTVSPropertyOp4
 70
     1
102
RTVSPropertyOp5
 70
     1
102
RTVSPropertyOp6
 70
     1
102
RTVSPropertyOp7
 70
     1
102
RTVSPropertyOp8
 70
     1
102
RTVSPropertyOp9
 70
     1
102
RTVSPropertyOp10
 70
     1
102
RTVSPropertyOp11
 70
     1
102
RTVSPropertyOp12
 70
     1
102
RTVSPropertyOp13
 70
     1
102
RTVSPropertyOp14
 70
     1
102
RTVSPropertyOp15
 70
     1
102
RTVSPropertyOp16
 70
     1
102
RTVSPropertyOp17
 70
     1
102
RTVSPropertyOp18
 70
     1
102
RTVSPropertyOp19
 70
     1
102
RTVSPropertyOp20
 70
     1
102
RTVSPropertyOp21
 70
     1
102
RTVSPropertyOp22
 70
     1
102
RTVSPropertyOp23
 70
     1
102
RTVSPropertyOp24
 70
     1
102
RTVSPropertyOp25
 70
     1
102
RTVSPropertyOp26
 70
     1
102
RTVSPropertyOp27
 70
     1
102
RTVSPropertyOp28
 70
     1
102
RTVSPropertyOp29
 70
     1
102
RTVSPropertyOp30
 70
     1
102
RTVSPropertyOp31
 70
     1
102
RTVSPropertyOp32
 70
     1
  0
XRECORD
  5
271
102
{ACAD_REACTORS
330
270
102
}
330
270
100
AcDbXrecord
280
     1
102
RTVSPropertyOp0
 70
     1
102
RTVSPropertyOp1
 70
     1
102
RTVSPropertyOp2
 70
     1
102
RTVSPropertyOp3
 70
     1
102
RTVSPropertyOp4
 70
     1
102
RTVSPropertyOp5
 70
     1
102
RTVSPropertyOp6
 70
     1
102
RTVSPropertyOp7
 70
     1
102
RTVSPropertyOp8
 70
     1
102
RTVSPropertyOp9
 70
     1
102
RTVSPropertyOp10
 70
     1
102
RTVSPropertyOp11
 70
     1
102
RTVSPropertyOp12
 70
     1
102
RTVSPropertyOp13
 70
     1
102
RTVSPropertyOp14
 70
     1
102
RTVSPropertyOp15
 70
     1
102
RTVSPropertyOp16
 70
     1
102
RTVSPropertyOp17
 70
     1
102
RTVSPropertyOp18
 70
     1
102
RTVSPropertyOp19
 70
     1
102
RTVSPropertyOp20
 70
     1
102
RTVSPropertyOp21
 70
     1
102
RTVSPropertyOp22
 70
     1
102
RTVSPropertyOp23
 70
     1
102
RTVSPropertyOp24
 70
     1
102
RTVSPropertyOp25
 70
     1
102
RTVSPropertyOp26
 70
     1
102
RTVSPropertyOp27
 70
     1
102
RTVSPropertyOp28
 70
     1
102
RTVSPropertyOp29
 70
     1
102
RTVSPropertyOp30
 70
     1
102
RTVSPropertyOp31
 70
     1
102
RTVSPropertyOp32
 70
     1
  0
XRECORD
  5
279
102
{ACAD_REACTORS
330
278
102
}
330
278
100
AcDbXrecord
280
     1
102
RTVSPropertyOp0
 70
     1
102
RTVSPropertyOp1
 70
     1
102
RTVSPropertyOp2
 70
     1
102
RTVSPropertyOp3
 70
     1
102
RTVSPropertyOp4
 70
     1
102
RTVSPropertyOp5
 70
     1
102
RTVSPropertyOp6
 70
     1
102
RTVSPropertyOp7
 70
     1
102
RTVSPropertyOp8
 70
     1
102
RTVSPropertyOp9
 70
     1
102
RTVSPropertyOp10
 70
     1
102
RTVSPropertyOp11
 70
     1
102
RTVSPropertyOp12
 70
     1
102
RTVSPropertyOp13
 70
     1
102
RTVSPropertyOp14
 70
     1
102
RTVSPropertyOp15
 70
     1
102
RTVSPropertyOp16
 70
     1
102
RTVSPropertyOp17
 70
     1
102
RTVSPropertyOp18
 70
     1
102
RTVSPropertyOp19
 70
     1
102
RTVSPropertyOp20
 70
     1
102
RTVSPropertyOp21
 70
     1
102
RTVSPropertyOp22
 70
     1
102
RTVSPropertyOp23
 70
     1
102
RTVSPropertyOp24
 70
     1
102
RTVSPropertyOp25
 70
     1
102
RTVSPropertyOp26
 70
     1
102
RTVSPropertyOp27
 70
     1
102
RTVSPropertyOp28
 70
     1
102
RTVSPropertyOp29
 70
     1
102
RTVSPropertyOp30
 70
     1
102
RTVSPropertyOp31
 70
     1
102
RTVSPropertyOp32
 70
     1
  0
XRECORD
  5
281
102
{ACAD_REACTORS
330
280
102
}
330
280
100
AcDbXrecord
280
     1
102
RTVSPropertyOp0
 70
     1
102
RTVSPropertyOp1
 70
     1
102
RTVSPropertyOp2
 70
     1
102
RTVSPropertyOp3
 70
     1
102
RTVSPropertyOp4
 70
     1
102
RTVSPropertyOp5
 70
     1
102
RTVSPropertyOp6
 70
     1
102
RTVSPropertyOp7
 70
     1
102
RTVSPropertyOp8
 70
     1
102
RTVSPropertyOp9
 70
     1
102
RTVSPropertyOp10
 70
     1
102
RTVSPropertyOp11
 70
     1
102
RTVSPropertyOp12
 70
     1
102
RTVSPropertyOp13
 70
     1
102
RTVSPropertyOp14
 70
     1
102
RTVSPropertyOp15
 70
     1
102
RTVSPropertyOp16
 70
     1
102
RTVSPropertyOp17
 70
     1
102
RTVSPropertyOp18
 70
     1
102
RTVSPropertyOp19
 70
     1
102
RTVSPropertyOp20
 70
     1
102
RTVSPropertyOp21
 70
     1
102
RTVSPropertyOp22
 70
     1
102
RTVSPropertyOp23
 70
     1
102
RTVSPropertyOp24
 70
     1
102
RTVSPropertyOp25
 70
     1
102
RTVSPropertyOp26
 70
     1
102
RTVSPropertyOp27
 70
     1
102
RTVSPropertyOp28
 70
     1
102
RTVSPropertyOp29
 70
     1
102
RTVSPropertyOp30
 70
     1
102
RTVSPropertyOp31
 70
     1
102
RTVSPropertyOp32
 70
     1
  0
XRECORD
  5
275
102
{ACAD_REACTORS
330
274
102
}
330
274
100
AcDbXrecord
280
     1
102
RTVSPropertyOp0
 70
     1
102
RTVSPropertyOp1
 70
     1
102
RTVSPropertyOp2
 70
     1
102
RTVSPropertyOp3
 70
     1
102
RTVSPropertyOp4
 70
     1
102
RTVSPropertyOp5
 70
     1
102
RTVSPropertyOp6
 70
     1
102
RTVSPropertyOp7
 70
     1
102
RTVSPropertyOp8
 70
     1
102
RTVSPropertyOp9
 70
     1
102
RTVSPropertyOp10
 70
     1
102
RTVSPropertyOp11
 70
     1
102
RTVSPropertyOp12
 70
     1
102
RTVSPropertyOp13
 70
     1
102
RTVSPropertyOp14
 70
     1
102
RTVSPropertyOp15
 70
     1
102
RTVSPropertyOp16
 70
     1
102
RTVSPropertyOp17
 70
     1
102
RTVSPropertyOp18
 70
     1
102
RTVSPropertyOp19
 70
     1
102
RTVSPropertyOp20
 70
     1
102
RTVSPropertyOp21
 70
     1
102
RTVSPropertyOp22
 70
     1
102
RTVSPropertyOp23
 70
     1
102
RTVSPropertyOp24
 70
     1
102
RTVSPropertyOp25
 70
     1
102
RTVSPropertyOp26
 70
     1
102
RTVSPropertyOp27
 70
     1
102
RTVSPropertyOp28
 70
     1
102
RTVSPropertyOp29
 70
     1
102
RTVSPropertyOp30
 70
     1
102
RTVSPropertyOp31
 70
     1
102
RTVSPropertyOp32
 70
     1
  0
XRECORD
  5
277
102
{ACAD_REACTORS
330
276
102
}
330
276
100
AcDbXrecord
280
     1
102
RTVSPropertyOp0
 70
     1
102
RTVSPropertyOp1
 70
     1
102
RTVSPropertyOp2
 70
     1
102
RTVSPropertyOp3
 70
     1
102
RTVSPropertyOp4
 70
     1
102
RTVSPropertyOp5
 70
     1
102
RTVSPropertyOp6
 70
     1
102
RTVSPropertyOp7
 70
     1
102
RTVSPropertyOp8
 70
     1
102
RTVSPropertyOp9
 70
     1
102
RTVSPropertyOp10
 70
     1
102
RTVSPropertyOp11
 70
     1
102
RTVSPropertyOp12
 70
     1
102
RTVSPropertyOp13
 70
     1
102
RTVSPropertyOp14
 70
     1
102
RTVSPropertyOp15
 70
     1
102
RTVSPropertyOp16
 70
     1
102
RTVSPropertyOp17
 70
     1
102
RTVSPropertyOp18
 70
     1
102
RTVSPropertyOp19
 70
     1
102
RTVSPropertyOp20
 70
     1
102
RTVSPropertyOp21
 70
     1
102
RTVSPropertyOp22
 70
     1
102
RTVSPropertyOp23
 70
     1
102
RTVSPropertyOp24
 70
     1
102
RTVSPropertyOp25
 70
     1
102
RTVSPropertyOp26
 70
     1
102
RTVSPropertyOp27
 70
     1
102
RTVSPropertyOp28
 70
     1
102
RTVSPropertyOp29
 70
     1
102
RTVSPropertyOp30
 70
     1
102
RTVSPropertyOp31
 70
     1
102
RTVSPropertyOp32
 70
     1
  0
XRECORD
  5
27F
102
{ACAD_REACTORS
330
27E
102
}
330
27E
100
AcDbXrecord
280
     1
102
RTVSPropertyOp0
 70
     1
102
RTVSPropertyOp1
 70
     1
102
RTVSPropertyOp2
 70
     1
102
RTVSPropertyOp3
 70
     1
102
RTVSPropertyOp4
 70
     1
102
RTVSPropertyOp5
 70
     1
102
RTVSPropertyOp6
 70
     1
102
RTVSPropertyOp7
 70
     1
102
RTVSPropertyOp8
 70
     1
102
RTVSPropertyOp9
 70
     1
102
RTVSPropertyOp10
 70
     1
102
RTVSPropertyOp11
 70
     1
102
RTVSPropertyOp12
 70
     1
102
RTVSPropertyOp13
 70
     1
102
RTVSPropertyOp14
 70
     1
102
RTVSPropertyOp15
 70
     1
102
RTVSPropertyOp16
 70
     1
102
RTVSPropertyOp17
 70
     1
102
RTVSPropertyOp18
 70
     1
102
RTVSPropertyOp19
 70
     1
102
RTVSPropertyOp20
 70
     1
102
RTVSPropertyOp21
 70
     1
102
RTVSPropertyOp22
 70
     1
102
RTVSPropertyOp23
 70
     1
102
RTVSPropertyOp24
 70
     1
102
RTVSPropertyOp25
 70
     1
102
RTVSPropertyOp26
 70
     1
102
RTVSPropertyOp27
 70
     1
102
RTVSPropertyOp28
 70
     1
102
RTVSPropertyOp29
 70
     1
102
RTVSPropertyOp30
 70
     1
102
RTVSPropertyOp31
 70
     1
102
RTVSPropertyOp32
 70
     1
  0
XRECORD
  5
263
102
{ACAD_REACTORS
330
262
102
}
330
262
100
AcDbXrecord
280
     1
102
RTVSPropertyOp0
 70
     1
102
RTVSPropertyOp1
 70
     1
102
RTVSPropertyOp2
 70
     1
102
RTVSPropertyOp3
 70
     1
102
RTVSPropertyOp4
 70
     1
102
RTVSPropertyOp5
 70
     1
102
RTVSPropertyOp6
 70
     1
102
RTVSPropertyOp7
 70
     1
102
RTVSPropertyOp8
 70
     1
102
RTVSPropertyOp9
 70
     1
102
RTVSPropertyOp10
 70
     1
102
RTVSPropertyOp11
 70
     1
102
RTVSPropertyOp12
 70
     1
102
RTVSPropertyOp13
 70
     1
102
RTVSPropertyOp14
 70
     1
102
RTVSPropertyOp15
 70
     1
102
RTVSPropertyOp16
 70
     1
102
RTVSPropertyOp17
 70
     1
102
RTVSPropertyOp18
 70
     1
102
RTVSPropertyOp19
 70
     1
102
RTVSPropertyOp20
 70
     1
102
RTVSPropertyOp21
 70
     1
102
RTVSPropertyOp22
 70
     1
102
RTVSPropertyOp23
 70
     1
102
RTVSPropertyOp24
 70
     1
102
RTVSPropertyOp25
 70
     1
102
RTVSPropertyOp26
 70
     1
102
RTVSPropertyOp27
 70
     1
102
RTVSPropertyOp28
 70
     1
102
RTVSPropertyOp29
 70
     1
102
RTVSPropertyOp30
 70
     1
102
RTVSPropertyOp31
 70
     1
102
RTVSPropertyOp32
 70
     1
  0
XRECORD
  5
265
102
{ACAD_REACTORS
330
264
102
}
330
264
100
AcDbXrecord
280
     1
102
RTVSPropertyOp0
 70
     1
102
RTVSPropertyOp1
 70
     1
102
RTVSPropertyOp2
 70
     1
102
RTVSPropertyOp3
 70
     1
102
RTVSPropertyOp4
 70
     1
102
RTVSPropertyOp5
 70
     1
102
RTVSPropertyOp6
 70
     1
102
RTVSPropertyOp7
 70
     1
102
RTVSPropertyOp8
 70
     1
102
RTVSPropertyOp9
 70
     1
102
RTVSPropertyOp10
 70
     1
102
RTVSPropertyOp11
 70
     1
102
RTVSPropertyOp12
 70
     1
102
RTVSPropertyOp13
 70
     1
102
RTVSPropertyOp14
 70
     1
102
RTVSPropertyOp15
 70
     1
102
RTVSPropertyOp16
 70
     1
102
RTVSPropertyOp17
 70
     1
102
RTVSPropertyOp18
 70
     1
102
RTVSPropertyOp19
 70
     1
102
RTVSPropertyOp20
 70
     1
102
RTVSPropertyOp21
 70
     1
102
RTVSPropertyOp22
 70
     1
102
RTVSPropertyOp23
 70
     1
102
RTVSPropertyOp24
 70
     1
102
RTVSPropertyOp25
 70
     1
102
RTVSPropertyOp26
 70
     1
102
RTVSPropertyOp27
 70
     1
102
RTVSPropertyOp28
 70
     1
102
RTVSPropertyOp29
 70
     1
102
RTVSPropertyOp30
 70
     1
102
RTVSPropertyOp31
 70
     1
102
RTVSPropertyOp32
 70
     1
  0
XRECORD
  5
267
102
{ACAD_REACTORS
330
266
102
}
330
266
100
AcDbXrecord
280
     1
102
RTVSPropertyOp0
 70
     1
102
RTVSPropertyOp1
 70
     1
102
RTVSPropertyOp2
 70
     1
102
RTVSPropertyOp3
 70
     1
102
RTVSPropertyOp4
 70
     1
102
RTVSPropertyOp5
 70
     1
102
RTVSPropertyOp6
 70
     1
102
RTVSPropertyOp7
 70
     1
102
RTVSPropertyOp8
 70
     1
102
RTVSPropertyOp9
 70
     1
102
RTVSPropertyOp10
 70
     1
102
RTVSPropertyOp11
 70
     1
102
RTVSPropertyOp12
 70
     1
102
RTVSPropertyOp13
 70
     1
102
RTVSPropertyOp14
 70
     1
102
RTVSPropertyOp15
 70
     1
102
RTVSPropertyOp16
 70
     1
102
RTVSPropertyOp17
 70
     1
102
RTVSPropertyOp18
 70
     1
102
RTVSPropertyOp19
 70
     1
102
RTVSPropertyOp20
 70
     1
102
RTVSPropertyOp21
 70
     1
102
RTVSPropertyOp22
 70
     1
102
RTVSPropertyOp23
 70
     1
102
RTVSPropertyOp24
 70
     1
102
RTVSPropertyOp25
 70
     1
102
RTVSPropertyOp26
 70
     1
102
RTVSPropertyOp27
 70
     1
102
RTVSPropertyOp28
 70
     1
102
RTVSPropertyOp29
 70
     1
102
RTVSPropertyOp30
 70
     1
102
RTVSPropertyOp31
 70
     1
102
RTVSPropertyOp32
 70
     1
  0
XRECORD
  5
269
102
{ACAD_REACTORS
330
268
102
}
330
268
100
AcDbXrecord
280
     1
102
RTVSPropertyOp0
 70
     1
102
RTVSPropertyOp1
 70
     1
102
RTVSPropertyOp2
 70
     1
102
RTVSPropertyOp3
 70
     1
102
RTVSPropertyOp4
 70
     1
102
RTVSPropertyOp5
 70
     1
102
RTVSPropertyOp6
 70
     1
102
RTVSPropertyOp7
 70
     1
102
RTVSPropertyOp8
 70
     1
102
RTVSPropertyOp9
 70
     1
102
RTVSPropertyOp10
 70
     1
102
RTVSPropertyOp11
 70
     1
102
RTVSPropertyOp12
 70
     1
102
RTVSPropertyOp13
 70
     1
102
RTVSPropertyOp14
 70
     1
102
RTVSPropertyOp15
 70
     1
102
RTVSPropertyOp16
 70
     1
102
RTVSPropertyOp17
 70
     1
102
RTVSPropertyOp18
 70
     1
102
RTVSPropertyOp19
 70
     1
102
RTVSPropertyOp20
 70
     1
102
RTVSPropertyOp21
 70
     1
102
RTVSPropertyOp22
 70
     1
102
RTVSPropertyOp23
 70
     1
102
RTVSPropertyOp24
 70
     1
102
RTVSPropertyOp25
 70
     1
102
RTVSPropertyOp26
 70
     1
102
RTVSPropertyOp27
 70
     1
102
RTVSPropertyOp28
 70
     1
102
RTVSPropertyOp29
 70
     1
102
RTVSPropertyOp30
 70
     1
102
RTVSPropertyOp31
 70
     1
102
RTVSPropertyOp32
 70
     1
  0
XRECORD
  5
27D
102
{ACAD_REACTORS
330
27C
102
}
330
27C
100
AcDbXrecord
280
     1
102
RTVSPropertyOp0
 70
     1
102
RTVSPropertyOp1
 70
     1
102
RTVSPropertyOp2
 70
     1
102
RTVSPropertyOp3
 70
     1
102
RTVSPropertyOp4
 70
     1
102
RTVSPropertyOp5
 70
     1
102
RTVSPropertyOp6
 70
     1
102
RTVSPropertyOp7
 70
     1
102
RTVSPropertyOp8
 70
     1
102
RTVSPropertyOp9
 70
     1
102
RTVSPropertyOp10
 70
     1
102
RTVSPropertyOp11
 70
     1
102
RTVSPropertyOp12
 70
     1
102
RTVSPropertyOp13
 70
     1
102
RTVSPropertyOp14
 70
     1
102
RTVSPropertyOp15
 70
     1
102
RTVSPropertyOp16
 70
     1
102
RTVSPropertyOp17
 70
     1
102
RTVSPropertyOp18
 70
     1
102
RTVSPropertyOp19
 70
     1
102
RTVSPropertyOp20
 70
     1
102
RTVSPropertyOp21
 70
     1
102
RTVSPropertyOp22
 70
     1
102
RTVSPropertyOp23
 70
     1
102
RTVSPropertyOp24
 70
     1
102
RTVSPropertyOp25
 70
     1
102
RTVSPropertyOp26
 70
     1
102
RTVSPropertyOp27
 70
     1
102
RTVSPropertyOp28
 70
     1
102
RTVSPropertyOp29
 70
     1
102
RTVSPropertyOp30
 70
     1
102
RTVSPropertyOp31
 70
     1
102
RTVSPropertyOp32
 70
     1
  0
XRECORD
  5
273
102
{ACAD_REACTORS
330
272
102
}
330
272
100
AcDbXrecord
280
     1
102
RTVSPropertyOp0
 70
     1
102
RTVSPropertyOp1
 70
     1
102
RTVSPropertyOp2
 70
     1
102
RTVSPropertyOp3
 70
     1
102
RTVSPropertyOp4
 70
     1
102
RTVSPropertyOp5
 70
     1
102
RTVSPropertyOp6
 70
     1
102
RTVSPropertyOp7
 70
     1
102
RTVSPropertyOp8
 70
     1
102
RTVSPropertyOp9
 70
     1
102
RTVSPropertyOp10
 70
     1
102
RTVSPropertyOp11
 70
     1
102
RTVSPropertyOp12
 70
     1
102
RTVSPropertyOp13
 70
     1
102
RTVSPropertyOp14
 70
     1
102
RTVSPropertyOp15
 70
     1
102
RTVSPropertyOp16
 70
     1
102
RTVSPropertyOp17
 70
     1
102
RTVSPropertyOp18
 70
     1
102
RTVSPropertyOp19
 70
     1
102
RTVSPropertyOp20
 70
     1
102
RTVSPropertyOp21
 70
     1
102
RTVSPropertyOp22
 70
     1
102
RTVSPropertyOp23
 70
     1
102
RTVSPropertyOp24
 70
     1
102
RTVSPropertyOp25
 70
     1
102
RTVSPropertyOp26
 70
     1
102
RTVSPropertyOp27
 70
     1
102
RTVSPropertyOp28
 70
     1
102
RTVSPropertyOp29
 70
     1
102
RTVSPropertyOp30
 70
     1
102
RTVSPropertyOp31
 70
     1
102
RTVSPropertyOp32
 70
     1
  0
XRECORD
  5
27B
102
{ACAD_REACTORS
330
27A
102
}
330
27A
100
AcDbXrecord
280
     1
102
RTVSPropertyOp0
 70
     1
102
RTVSPropertyOp1
 70
     1
102
RTVSPropertyOp2
 70
     1
102
RTVSPropertyOp3
 70
     1
102
RTVSPropertyOp4
 70
     1
102
RTVSPropertyOp5
 70
     1
102
RTVSPropertyOp6
 70
     1
102
RTVSPropertyOp7
 70
     1
102
RTVSPropertyOp8
 70
     1
102
RTVSPropertyOp9
 70
     1
102
RTVSPropertyOp10
 70
     1
102
RTVSPropertyOp11
 70
     1
102
RTVSPropertyOp12
 70
     1
102
RTVSPropertyOp13
 70
     1
102
RTVSPropertyOp14
 70
     1
102
RTVSPropertyOp15
 70
     1
102
RTVSPropertyOp16
 70
     1
102
RTVSPropertyOp17
 70
     1
102
RTVSPropertyOp18
 70
     1
102
RTVSPropertyOp19
 70
     1
102
RTVSPropertyOp20
 70
     1
102
RTVSPropertyOp21
 70
     1
102
RTVSPropertyOp22
 70
     1
102
RTVSPropertyOp23
 70
     1
102
RTVSPropertyOp24
 70
     1
102
RTVSPropertyOp25
 70
     1
102
RTVSPropertyOp26
 70
     1
102
RTVSPropertyOp27
 70
     1
102
RTVSPropertyOp28
 70
     1
102
RTVSPropertyOp29
 70
     1
102
RTVSPropertyOp30
 70
     1
102
RTVSPropertyOp31
 70
     1
102
RTVSPropertyOp32
 70
     1
  0
ENDSEC
  0
EOF
